×

¿Problemas para descargar con Mozilla, EDGE? Deshabilita la opción "Abrir vinculos en una pestaña nueva" tal como lo muestra ésta imagen.

Sublime (2007) REMUX 1080p SUB

254 vistas

Información de Sublime (2007) REMUX 1080p SUB

Datos de la película

  • Calidad: Full 1080p
  • Audio: Ingles AC3 5.1 BLURAY
  • Subtitulos: Español Latino PGS - Ingles PGS
  • Resolución: 1920x1080p
  • Formato: MKV
  • Codec: H.264
  • Encoder: CinefiloCool
  • Mediainfo: Clic para Mostrar Datos Ver
  • Sublime (2007) REMUX 1080p SUB-CMHDD.mkv
    Format                      : Matroska
    Format version              : Version 4
    File size                   : 16.1 GiB
    Duration                    : 1 h 53 min
    Overall bit rate            : 20.4 Mb/s
    Movie name                  : Sublime (2007) CinemaniaHDD.Net
    Encoded date                : UTC 2023-03-19 06:57:03
    Writing application         : mkvmerge v56.1.0 ('My Friend') 64-bit
    Writing library             : libebml v1.4.2 + libmatroska v1.6.4
    Attachments                 : CINEMANIAHD.png

    Video
    ID                          : 1
    ID in the original source m : 4113 (0x1011)
    Format                      : VC-1
    Format profile              : Advanced@L3
    Codec ID                    : V_MS/VFW/FOURCC / WVC1
    Codec ID/Hint               : Microsoft
    Duration                    : 1 h 53 min
    Bit rate                    : 19.7 Mb/s
    Width                       : 1 920 pixels
    Height                      : 1 080 pixels
    Display aspect ratio        : 16:9
    Frame rate mode             : Constant
    Frame rate                  : 23.976 (24000/1001) FPS
    Color space                 : YUV
    Chroma subsampling          : 4:2:0
    Bit depth                   : 8 bits
    Scan type                   : Progressive
    Compression mode            : Lossy
    Bits/(Pixel*Frame)          : 0.397
    Stream size                 : 15.6 GiB (97%)
    Title                       : REMUX HD1080p [CinemaniaHDD]
    Default                     : Yes
    Forced                      : Yes
    Original source medium      : Blu-ray

    Audio
    ID                          : 2
    ID in the original source m : 4352 (0x1100)
    Format                      : AC-3
    Format/Info                 : Audio Coding 3
    Commercial name             : Dolby Digital
    Codec ID                    : A_AC3
    Duration                    : 1 h 53 min
    Bit rate mode               : Constant
    Bit rate                    : 640 kb/s
    Channel(s)                  : 6 channels
    Channel layout              : L R C LFE Ls Rs
    Sampling rate               : 48.0 kHz
    Frame rate                  : 31.250 FPS (1536 SPF)
    Compression mode            : Lossy
    Stream size                 : 518 MiB (3%)
    Title                       : Ingles [CinemaniaHDD]
    Language                    : English
    Service kind                : Complete Main
    Default                     : Yes
    Forced                      : Yes
    Original source medium      : Blu-ray

    Text #1
    ID                          : 3
    ID in the original source m : 4610 (0x1202)
    Format                      : PGS
    Muxing mode                 : zlib
    Codec ID                    : S_HDMV/PGS
    Codec ID/Info               : Picture based subtitle format used on BDs/HD-DVDs
    Duration                    : 1 h 52 min
    Bit rate                    : 29.4 kb/s
    Count of elements           : 2394
    Stream size                 : 23.6 MiB (0%)
    Title                       : Español-PGS [CinemaniaHDD]
    Language                    : Spanish
    Default                     : No
    Forced                      : No
    Original source medium      : Blu-ray

    Text #2
    ID                          : 4
    ID in the original source m : 4608 (0x1200)
    Format                      : PGS
    Muxing mode                 : zlib
    Codec ID                    : S_HDMV/PGS
    Codec ID/Info               : Picture based subtitle format used on BDs/HD-DVDs
    Duration                    : 1 h 51 min
    Bit rate                    : 30.6 kb/s
    Count of elements           : 2695
    Stream size                 : 24.4 MiB (0%)
    Title                       : Ingles-PGS [CinemaniaHDD]
    Language                    : English
    Default                     : No
    Forced                      : No
    Original source medium      : Blu-ray

    Text #3
    ID                          : 5
    Format                      : UTF-8
    Codec ID                    : S_TEXT/UTF8
    Codec ID/Info               : UTF-8 Plain Text
    Duration                    : 1 h 46 min
    Bit rate                    : 55 b/s
    Count of elements           : 1196
    Stream size                 : 43.4 KiB (0%)
    Title                       : Español-SRT [CinemaniaHDD]
    Language                    : Spanish
    Default                     : Yes
    Forced                      : Yes

    Menu
    00:00:00.000                : Chapter 01
    00:04:00.406                : Chapter 02
    00:07:41.461                : Chapter 03
    00:11:49.375                : Chapter 04
    00:15:59.667                : Chapter 05
    00:20:09.791                : Chapter 06
    00:23:52.556                : Chapter 07
    00:27:02.495                : Chapter 08
    00:32:25.234                : Chapter 09
    00:35:59.115                : Chapter 10
    00:39:47.301                : Chapter 11
    00:46:02.760                : Chapter 12
    00:50:51.048                : Chapter 13
    00:54:42.779                : Chapter 14
    00:59:44.789                : Chapter 15
    01:03:56.707                : Chapter 16
    01:10:08.829                : Chapter 17
    01:14:41.143                : Chapter 18
    01:17:47.954                : Chapter 19
    01:21:24.337                : Chapter 20
    01:26:05.994                : Chapter 21
    01:30:30.675                : Chapter 22
    01:36:15.227                : Chapter 23
    01:42:59.590                : Chapter 24
    01:48:20.160                : Chapter 25

  • Peso: 16.1 GiB

Sinopsis

Descargar Sublime (2007) REMUX 1080p SUB. George Grieves ingresa en el hospital de Mt Abbadon para hacerse un control de rutina. Pero cuando se despierta tras ser anestesiado, hay algo muy extraño… Así da comienzo una aterradora historia repleta de secretos, sexo y pánico en el quirófano.

Ficha técnica

Video trailer de la película

Enlaces de descarga

Rip de Bluray

Descargar Sublime (2007) REMUX 1080p SUB


Aportes de DPeliculasHDmega la pass es:dpeliculashdmega.org Aportes de CinemaniaHD la pass es:cinemaniahdd.com Aportes recientes:cinemaniahdd.net
Guardado en : Remux , Suspenso , Terror

Películas relacionadas

  • Viviendo con mi ex (2006) REMUX 1080p Latino-CMHDD

    Viviendo con mi ex (2006) REMUX 1080p Latino-CMHDD

    2006
    Viviendo con mi ex (2006) REMUX 1080p Latino-CMHDD

    1h 46m 2006

    Descargar Viviendo con mi ex (2006) REMUX 1080p Latino-CMHDD. Relato sobre las consecuencias de una ruptura...

    Director: Todd Amateau

    Género: Comedia

    Actores: William Dick

  • Strictly Confidential (2024) WEB-DL 1080p Latino

    Strictly Confidential (2024) WEB-DL 1080p Latino

    2024
    Strictly Confidential (2024) WEB-DL 1080p Latino

    1h 28m 2024

    Descargar Strictly Confidential (2024) WEB-DL 1080p Latino. Una joven atormentada se ve atraída por...

    Director: Damian Hurley

    Género: Misterio

    Actores: Thomas Downey

  • La Otra Cara de Dorian (2023) WEB-DL 1080p Latino

    La Otra Cara de Dorian (2023) WEB-DL 1080p Latino

    2023
    La Otra Cara de Dorian (2023) WEB-DL 1080p Latino

    1h 40m 2023

    Descargar La Otra Cara de Dorian (2023) WEB-DL 1080p Latino. Una versión moderna del cuento de Oscar...

    Director: Richard John Taylor

    Género: Drama

    Actores: Triana Terry

  • La melodía del diablo (2023) WEB-DL 1080p Latino

    La melodía del diablo (2023) WEB-DL 1080p Latino

    2023
    La melodía del diablo (2023) WEB-DL 1080p Latino

    1h 35m 2023

    Descargar La melodía del diablo (2023) WEB-DL 1080p Latino. Una joven compositora se encuentra frente...

    Director: Erlingur Thoroddsen

    Género: Terror

    Actores: Salomé Chandler

descargar Sublime (2007) REMUX 1080p SUB Full 1080p 1080p gratis, Sublime (2007) REMUX 1080p SUB Full 1080p mega 1 link, Sublime (2007) REMUX 1080p SUB Full 1080p pelicula completa, descargar Sublime (2007) REMUX 1080p SUB Full 1080p gratis en mega.

Sublime (2007) REMUX 1080p SUB pelicula full hd, Sublime (2007) REMUX 1080p SUB mega latino, Sublime (2007) REMUX 1080p SUB 4k latino, Sublime (2007) REMUX 1080p SUB pelicula completa, Sublime (2007) REMUX 1080p SUB descargar gratis, descargar Sublime (2007) REMUX 1080p SUB pelicula latino, Sublime (2007) REMUX 1080p SUB 1 link mega, Sublime (2007) REMUX 1080p SUB 1 link google drive, Sublime (2007) REMUX 1080p SUB hd 1080p latino.
Comentarios 0