Su mejor historia (2017) 1080p Latino

1.221 vistas
1 estrella2 estrellas3 estrellas4 estrellas5 estrellas (Ninguna valoración todavía)
Cargando…

Información de Su mejor historia (2017) 1080p Latino

Datos de la película

  • Calidad: 1080p
  • Audio: Español Latino AC3 2.0 Capturado - Ingles AC3 5.1 BLURAY
  • Subtitulos: Español Latino SRT
  • Resolución: 1920x800p
  • Formato: MKV
  • Codec: H.264
  • Encoder: Dpelis
  • Mediainfo: Clic para Mostrar Datos Ver
  • Their Finest (2016) 1080p Latino.mkv
    Format                      : Matroska
    Format version              : Version 4 / Version 2
    File size                   : 3.33 GiB
    Duration                    : 1 h 56 min
    Overall bit rate            : 4 072 kb/s
    Movie name                  : DPeliculasHDMega.ORG
    Encoded date                : UTC 2017-10-02 11:45:41 / UTC 2017-10-02T04:45:03Z
    Writing application         : mkvmerge v10.0.0 ('To Drown In You') 64bit
    Writing library             : libebml v1.3.4 + libmatroska v1.4.5 / Lavf57.7.2

    Video
    ID                          : 1
    Format                      : AVC
    Format/Info                 : Advanced Video Codec
    Format profile              : [email protected]
    Format settings, CABAC      : Yes
    Format settings, RefFrames  : 5 frames
    Codec ID                    : V_MPEG4/ISO/AVC
    Duration                    : 1 h 56 min
    Bit rate                    : 3 500 kb/s
    Width                       : 1 920 pixels
    Height                      : 800 pixels
    Display aspect ratio        : 2.40:1
    Frame rate mode             : Constant
    Frame rate                  : 23.976 (24000/1001) FPS
    Color space                 : YUV
    Chroma subsampling          : 4:2:0
    Bit depth                   : 8 bits
    Scan type                   : Progressive
    Bits/(Pixel*Frame)          : 0.095
    Stream size                 : 2.79 GiB (84%)
    Writing library             : x264 core 148 r2708 86b7198
    Encoding settings           : cabac=1 / ref=5 / deblock=1:0:0 / analyse=0x3:0x113 / me=umh / subme=8 / psy=1 / psy_rd=1.00:0.00 / mixed_ref=1 / me_range=16 / chroma_me=1 / trellis=1 / 8x8dct=1 / cqm=0 / deadzone=21,11 / fast_pskip=1 / chroma_qp_offset=-2 / threads=12 / lookahead_threads=2 / sliced_threads=0 / nr=0 / decimate=1 / interlaced=0 / bluray_compat=0 / constrained_intra=0 / bframes=3 / b_pyramid=2 / b_adapt=2 / b_bias=0 / direct=3 / weightb=1 / open_gop=0 / weightp=2 / keyint=240 / keyint_min=24 / scenecut=40 / intra_refresh=0 / rc_lookahead=50 / rc=abr / mbtree=1 / bitrate=3500 / ratetol=1.0 / qcomp=0.60 / qpmin=0 / qpmax=69 / qpstep=4 / vbv_maxrate=62500 / vbv_bufsize=78125 / nal_hrd=none / filler=0 / ip_ratio=1.40 / aq=1:1.00
    Default                     : Yes
    Forced                      : No
    Color range                 : Limited
    Color primaries             : BT.709
    Transfer characteristics    : BT.709
    Matrix coefficients         : BT.709
    Statistics Tags Issue       : mkvmerge v10.0.0 ('To Drown In You') 64bit 2017-10-02 11:45:41 / mkvmerge v10.0.0 ('To Drown In You') 64bit 2017-10-02 11:45:41 / UTC 2017-10-02T04:45:03Z
    FromStats_BitRate           : 3494255
    FromStats_Duration          : 01:56:59.054000000
    FromStats_FrameCount        : 168289
    FromStats_StreamSize        : 3065795936

    Audio #1
    ID                          : 2
    Format                      : AC-3
    Format/Info                 : Audio Coding 3
    Format settings, Endianness : Big
    Codec ID                    : A_AC3
    Duration                    : 1 h 56 min
    Bit rate mode               : Constant
    Bit rate                    : 192 kb/s
    Channel(s)                  : 2 channels
    Channel positions           : Front: L R
    Sampling rate               : 48.0 kHz
    Frame rate                  : 31.250 FPS (1536 SPF)
    Bit depth                   : 16 bits
    Compression mode            : Lossy
    Delay relative to video     : 7 ms
    Stream size                 : 161 MiB (5%)
    Language                    : Spanish
    Service kind                : Complete Main
    Default                     : Yes
    Forced                      : No
    Statistics Tags Issue       : mkvmerge v10.0.0 ('To Drown In You') 64bit 2017-10-02 11:45:41 / mkvmerge v10.0.0 ('To Drown In You') 64bit 2017-10-02 11:45:41 / UTC 2017-10-02T04:45:03Z
    FromStats_BitRate           : 192000
    FromStats_Duration          : 01:56:59.264000000
    FromStats_FrameCount        : 219352
    FromStats_StreamSize        : 168462336

    Audio #2
    ID                          : 3
    Format                      : AC-3
    Format/Info                 : Audio Coding 3
    Format settings, Endianness : Big
    Codec ID                    : A_AC3
    Duration                    : 1 h 56 min
    Bit rate mode               : Constant
    Bit rate                    : 384 kb/s
    Channel(s)                  : 6 channels
    Channel positions           : Front: L C R, Side: L R, LFE
    Sampling rate               : 48.0 kHz
    Frame rate                  : 31.250 FPS (1536 SPF)
    Bit depth                   : 16 bits
    Compression mode            : Lossy
    Delay relative to video     : -5 ms
    Stream size                 : 321 MiB (9%)
    Title                       : Surround
    Language                    : English
    Service kind                : Complete Main
    Default                     : No
    Forced                      : No
    Statistics Tags Issue       : mkvmerge v10.0.0 ('To Drown In You') 64bit 2017-10-02 11:45:41 / mkvmerge v10.0.0 ('To Drown In You') 64bit 2017-10-02 11:45:41 / UTC 2017-10-02T04:45:03Z
    FromStats_BitRate           : 384000
    FromStats_Duration          : 01:56:59.008000000
    FromStats_FrameCount        : 219344
    FromStats_StreamSize        : 336912384

    Text
    ID                          : 4
    Format                      : UTF-8
    Codec ID                    : S_TEXT/UTF8
    Codec ID/Info               : UTF-8 Plain Text
    Language                    : Spanish
    Default                     : No
    Forced                      : No
    Statistics Tags Issue       : mkvmerge v10.0.0 ('To Drown In You') 64bit 2017-10-02 11:45:41 / mkvmerge v10.0.0 ('To Drown In You') 64bit 2017-10-02 11:45:41 / UTC 2017-10-02T04:45:03Z
    FromStats_BitRate           : 67
    FromStats_Duration          : 01:50:46.622000000
    FromStats_FrameCount        : 1473
    FromStats_StreamSize        : 56200

    Menu
    00:00:00.000                : :00:00:00.000
    00:07:49.344                : :00:07:49.302
    00:15:15.706                : :00:15:15.706
    00:21:08.017                : :00:21:08.017
    00:30:43.633                : :00:30:43.633
    00:38:24.052                : :00:38:24.052
    00:46:26.909                : :00:46:26.784
    00:53:51.186                : :00:53:51.186
    01:00:41.596                : :01:00:41.596
    01:08:32.525                : :01:08:32.358
    01:18:48.557                : :01:18:48.557
    01:22:49.965                : :01:22:49.798
    01:29:51.177                : :01:29:51.010
    01:37:05.653                : :01:37:05.403
    01:45:05.549                : :01:45:05.341
    01:50:42.302                : :01:50:42.260

  • Peso: 3.33 GB

Sinopsis

Un equipo cinematográfico británico recibe el encargo de hacer una película patriótica para levantar la moral de las tropas inglesas tras los bombardeos de la aviación nazi sobre Londres durante la Segunda Guerra Mundial. El problema surgirá cuando se desencadene una auténtica batalla de sexos.

Ficha técnica

Video trailer de la película

Enlaces de descarga

Rip de Bluray

Descargar Su mejor historia (2017) 1080p Latino




Aportes de DPeliculasHDmega la pass es:dpeliculashdmega.org Aportes de CinemaniaHD la pass es:cinemaniahdd.com
Guardado en : Comedia , Drama , Guerra , Romance

Películas relacionadas

  • Native Son (2019) AMZN WEB-DL 1080p Latino

    2019
    Native Son (2019) AMZN WEB-DL 1080p Latino

    4.0 1h 50m 2019

    Bigger “Big” Thomas (Ashton Sanders) es un joven afroamericano que vive con su madre y hermanos en...

    Director: Rashid Johnson

    Género: Drama

    Actores: Stephen Henderson

  • Dragged Across Concrete (2018) WEB-DL Latino

    2019
    Dragged Across Concrete (2018) WEB-DL Latino

    0.0 2h 39m 2019

    Las películas de S. Craig Zahler se cuecen a fuego lento. Sin embargo, su carrera es fulgurante: ya...

    Director: Sam Harris

    Género: Acción

    Actores: Vivian Ng

  • Miss Bala (2019) WEB-DL 1080p Latino

    2019
    Miss Bala (2019) WEB-DL 1080p Latino

    0.0 1h 44m 2019

    La ganadora de un concurso de belleza se ve obligada a trabajar para un jefe del crimen después de ser...

    Director: Catherine Hardwicke

    Género: Acción

    Actores: Roberto Sosa

  • Amigos por Siempre (2019) WEB-DL 1080p Latino

    2019
    Amigos por Siempre (2019) WEB-DL 1080p Latino

    0.0 2h 3m 2019

    Remake norteamericano del gran éxito del cine francés "Intocable" (2011), que aborda la relación que...

    Director: Neil Burger

    Género: Comedia

    Actores: Ursula Triplett

Comentarios 5
  • manuel - 12 octubre, 2017

    Una pregunta, Audio Latino “Capturado” que significa?

    • dpelis - 13 octubre, 2017

      se graba con pc, de una de TV o streaming

      • manuel - 14 octubre, 2017

        Muchas gracias, solo queria saber si se escuchaba bien el audio latino. Pense que era un audio grabado de sonido ambiente. O sea que seria como un audio de un Web-Dl

  • Chapulin Calentin - 02 octubre, 2017

    Está bien que quieran tener todas las primicias, pero no bajen la calidad de la página… Los administradores anteriores nunca subieron mala calidad: imágenes pixeladas… audios line… audios en gallego… audios desfazados… A veces, ni siquiera se fijan lo que están subiendo! Paren !!! Aunque suban películas truchas, mantengan la dignidad !!!

    • dpelis - 03 octubre, 2017

      siempre se comenten errores, no somos perfectos.