Stuck Together (2021) NF WEB-DL 1080p Latino

31 vistas
1 estrella2 estrellas3 estrellas4 estrellas5 estrellas (Ninguna valoración todavía)
Cargando...

Información de Stuck Together (2021) NF WEB-DL 1080p Latino

Datos de la película

  • Calidad: 1080p
  • Audio: Español Latino AC3 5.1 WEB-DL - Ingles AC3 5.1 WEB-DL
  • Subtitulos: Español Latino SRT- FORZADOS SRT
  • Resolución: 1920x1080
  • Formato: MKV
  • Codec: H.264
  • Encoder: cinemaniahdd
  • Mediainfo: Clic para Mostrar Datos Ver
  • Stuck Together (2021) NF WEB-DL 1080p Latino [CNMNHDD].mkv
    Format                      : Matroska
    Format version              : Version 4
    File size                   : 2.90 GiB
    Duration                    : 2 h 6 min
    Overall bit rate mode       : Variable
    Overall bit rate            : 3 288 kb/s
    Movie name                  : Stuck Together (2021) - CinemaniaHDD.Net
    Encoded date                : UTC 2021-10-20 23:01:30
    Writing application         : mkvmerge v43.0.0 ('The Quartermaster') 64-bit
    Writing library             : libebml v1.3.10 + libmatroska v1.5.2

    Video
    ID                          : 1
    Format                      : AVC
    Format/Info                 : Advanced Video Codec
    Format profile              : Main@L4
    Format settings             : CABAC / 3 Ref Frames
    Format settings, CABAC      : Yes
    Format settings, Reference  : 3 frames
    Codec ID                    : V_MPEG4/ISO/AVC
    Duration                    : 2 h 6 min
    Bit rate mode               : Variable
    Bit rate                    : 2 517 kb/s
    Nominal bit rate            : 2 740 kb/s
    Maximum bit rate            : 4 110 kb/s
    Width                       : 1 920 pixels
    Height                      : 1 080 pixels
    Display aspect ratio        : 16:9
    Frame rate mode             : Constant
    Frame rate                  : 24.000 FPS
    Color space                 : YUV
    Chroma subsampling          : 4:2:0
    Bit depth                   : 8 bits
    Scan type                   : Progressive
    Bits/(Pixel*Frame)          : 0.051
    Stream size                 : 2.22 GiB (77%)
    Title                       : CinemaniaHDD
    Writing library             : x264 core 148 r2724 dbe0335
    Encoding settings           : cabac=1 / ref=3 / deblock=1:0:0 / analyse=0x1:0x111 / me=umh / subme=10 / psy=1 / psy_rd=1.00:0.00 / mixed_ref=1 / me_range=24 / chroma_me=1 / trellis=2 / 8x8dct=0 / cqm=0 / deadzone=21,11 / fast_pskip=1 / chroma_qp_offset=-2 / threads=8 / lookahead_threads=1 / sliced_threads=0 / nr=0 / decimate=1 / interlaced=0 / bluray_compat=0 / stitchable=1 / constrained_intra=0 / bframes=2 / b_pyramid=0 / b_adapt=2 / b_bias=0 / direct=3 / weightb=1 / open_gop=0 / weightp=2 / keyint=250 / keyint_min=24 / scenecut=0 / intra_refresh=0 / rc_lookahead=48 / rc=2pass / mbtree=1 / bitrate=2740 / ratetol=1.0 / qcomp=0.50 / qpmin=6 / qpmax=51 / qpstep=4 / cplxblur=20.0 / qblur=0.5 / vbv_maxrate=4110 / vbv_bufsize=5480 / nal_hrd=vbr / filler=0 / ip_ratio=1.40 / aq=1:1.00
    Default                     : Yes
    Forced                      : No

    Audio #1
    ID                          : 2
    Format                      : AC-3
    Format/Info                 : Audio Coding 3
    Commercial name             : Dolby Digital
    Codec ID                    : A_AC3
    Duration                    : 2 h 6 min
    Bit rate mode               : Constant
    Bit rate                    : 384 kb/s
    Channel(s)                  : 6 channels
    Channel layout              : L R C LFE Ls Rs
    Sampling rate               : 48.0 kHz
    Frame rate                  : 31.250 FPS (1536 SPF)
    Compression mode            : Lossy
    Stream size                 : 347 MiB (12%)
    Title                       : Español latino [CinemaniaHDD]
    Language                    : Spanish
    Service kind                : Complete Main
    Default                     : Yes
    Forced                      : No

    Audio #2
    ID                          : 3
    Format                      : AC-3
    Format/Info                 : Audio Coding 3
    Commercial name             : Dolby Digital
    Codec ID                    : A_AC3
    Duration                    : 2 h 6 min
    Bit rate mode               : Constant
    Bit rate                    : 384 kb/s
    Channel(s)                  : 6 channels
    Channel layout              : L R C LFE Ls Rs
    Sampling rate               : 48.0 kHz
    Frame rate                  : 31.250 FPS (1536 SPF)
    Compression mode            : Lossy
    Stream size                 : 347 MiB (12%)
    Title                       : Inglés [CinemaniaHDD]
    Language                    : English
    Service kind                : Complete Main
    Default                     : No
    Forced                      : No

    Text #1
    ID                          : 4
    Format                      : UTF-8
    Codec ID                    : S_TEXT/UTF8
    Codec ID/Info               : UTF-8 Plain Text
    Duration                    : 2 h 5 min
    Bit rate                    : 0 b/s
    Count of elements           : 27
    Stream size                 : 548 Bytes (0%)
    Title                       : Forzados [CinemaniaHDD]
    Language                    : Spanish
    Default                     : Yes
    Forced                      : Yes

    Text #2
    ID                          : 5
    Format                      : UTF-8
    Codec ID                    : S_TEXT/UTF8
    Codec ID/Info               : UTF-8 Plain Text
    Duration                    : 2 h 5 min
    Bit rate                    : 62 b/s
    Count of elements           : 2062
    Stream size                 : 57.6 KiB (0%)
    Title                       : Español latino [CinemaniaHDD]
    Language                    : Spanish
    Default                     : No
    Forced                      : No

     

  • Peso: 2.90 GiB

Sinopsis

París está en cuarentena por la pandemia, y los singulares residentes de un edificio de apartamentos deben adaptarse a su nueva vida… y a convivir con los demás.

Ficha técnica

  • Titulo original: 8 Rue de l'Humanité
  • Fecha de lanzamiento: 20-10-2021 (Belgium, France)
  • Director: Dany Boon
  • Género: Comedia, Netflix
  • Puntuación: 0.0 0 votos
  • Duración:
    2h 5m

Video trailer de la película

Enlaces de descarga

Rip de Bluray

Descargar Stuck Together (2021) NF WEB-DL 1080p Latino




Aportes de DPeliculasHDmega la pass es:dpeliculashdmega.org Aportes de CinemaniaHD la pass es:cinemaniahdd.com
Guardado en : Comedia , Netflix

Películas relacionadas

  • Afuera Del Tiempo (2019) AMZN WEB-DL 1080p Latino

    Afuera Del Tiempo (2019) AMZN WEB-DL 1080p Latino

    2019
    Afuera Del Tiempo (2019) AMZN WEB-DL 1080p Latino

    0.0 1h 21m 2019

    Ricardo siempre le ha terminado a todas sus novias, pero una se le adelanta justo, cuando él le propone...

    Director: Marco Vélez Esquivia

    Género: Ciencia ficción

    Actores: Walter Luengas

  • Chucky (2021) Temporada 1 WEB-DL 1080p latino

    Chucky (2021) Temporada 1 WEB-DL 1080p latino

    2021
    Chucky (2021) Temporada 1 WEB-DL 1080p latino

    4.5 0h 46m 2021

    Después de que un muñeco vintage de Chucky aparece en una venta de patio suburbana, una ciudad...

    Director: Nick Antosca

    Género: Comedia

    Actores: Zackary Arthur

  • Mi vida a los diecisiete (2016) REMUX 1080p Latino

    Mi vida a los diecisiete (2016) REMUX 1080p Latino

    2016
    Mi vida a los diecisiete (2016) REMUX 1080p Latino

    0.0 1h 45m 2016

    Descargar Mi vida a los diecisiete (2016) REMUX 1080p Latino. Todo el mundo sabe que crecer es difícil,...

    Director: Kelly Fremon Craig

    Género: Comedia

    Actores: Woody Harrelson

  • Lady Bird (2017) REMUX 1080p Latino

    Lady Bird (2017) REMUX 1080p Latino

    2017
    Lady Bird (2017) REMUX 1080p Latino

    0.0 1h 34m 2017

    Descargar Lady Bird (2017) REMUX 1080p Latino. Una joven estudiante que se hace llamar Lady Bird (Saoirse...

    Director: Jonas Spaccarotelli

    Género: Comedia

    Actores: Tracy Letts

Stuck Together (2021) NF WEB-DL 1080p Latino pelicula full hd, Stuck Together (2021) NF WEB-DL 1080p Latino mega latino, Stuck Together (2021) NF WEB-DL 1080p Latino 4k latino, Stuck Together (2021) NF WEB-DL 1080p Latino pelicula completa, Stuck Together (2021) NF WEB-DL 1080p Latino descargar gratis, descargar Stuck Together (2021) NF WEB-DL 1080p Latino pelicula latino, Stuck Together (2021) NF WEB-DL 1080p Latino 1 link mega, Stuck Together (2021) NF WEB-DL 1080p Latino 1 link google drive, Stuck Together (2021) NF WEB-DL 1080p Latino hd 1080p latino.
Comentarios 0