×

¿Problemas para descargar con Mozilla, EDGE? Deshabilita la opción "Abrir vinculos en una pestaña nueva" tal como lo muestra ésta imagen.

Stuber: Locos al volante (2019) Full HD 1080p Latino

1.819 vistas

Información de Stuber: Locos al volante (2019) Full HD 1080p Latino

Datos de la película

  • Calidad: Full 1080p
  • Audio: Español Latino AC3 5.1 BLURAY - Ingles DTS 5.1 BLURAY
  • Subtitulos: Español Latino PGS - Ingles PGS
  • Resolución: 1920x1080p
  • Formato: MKV
  • Codec: H.264
  • Encoder: CinefiloCool
  • Mediainfo: Clic para Mostrar Datos Ver
  • Stuber - Locos al volante (2019) Full HD 1080p Latino-CMHDD.mkv
    Format                      : Matroska
    Format version              : Version 4
    File size                   : 4.03 GiB
    Duration                    : 1 h 33 min
    Overall bit rate            : 6 183 kb/s
    Movie name                  : Stuber (2019) CinemaniaHDD.Net
    Encoded date                : UTC 2019-10-13 06:42:57
    Writing application         : mkvmerge v38.0.0 ('The Silent Type') 64-bit
    Writing library             : libebml v1.3.9 + libmatroska v1.5.2
    Attachments                 : CINEMANIAHD.png

    Video
    ID                          : 1
    Format                      : AVC
    Format/Info                 : Advanced Video Codec
    Format profile              : High@L4.1
    Format settings             : CABAC / 4 Ref Frames
    Format settings, CABAC      : Yes
    Format settings, ReFrames   : 4 frames
    Codec ID                    : V_MPEG4/ISO/AVC
    Duration                    : 1 h 33 min
    Bit rate                    : 4 190 kb/s
    Width                       : 1 920 pixels
    Height                      : 1 080 pixels
    Display aspect ratio        : 16:9
    Frame rate mode             : Constant
    Frame rate                  : 23.976 (24000/1001) FPS
    Color space                 : YUV
    Chroma subsampling          : 4:2:0
    Bit depth                   : 8 bits
    Scan type                   : Progressive
    Bits/(Pixel*Frame)          : 0.084
    Stream size                 : 2.73 GiB (68%)
    Title                       : Full HD1080p [Bluray]
    Writing library             : x264 core 157 r2935 545de2f
    Encoding settings           : cabac=1 / ref=4 / deblock=1:-1:-1 / analyse=0x3:0x133 / me=tesa / subme=11 / psy=1 / psy_rd=1.00:0.15 / mixed_ref=1 / me_range=24 / chroma_me=1 / trellis=2 / 8x8dct=1 / cqm=0 / deadzone=21,11 / fast_pskip=0 / chroma_qp_offset=-3 / threads=34 / lookahead_threads=8 / sliced_threads=0 / nr=0 / decimate=1 / interlaced=0 / bluray_compat=0 / constrained_intra=0 / bframes=16 / b_pyramid=2 / b_adapt=2 / b_bias=0 / direct=3 / weightb=1 / open_gop=0 / weightp=2 / keyint=240 / keyint_min=24 / scenecut=40 / intra_refresh=0 / rc_lookahead=60 / rc=crf / mbtree=1 / crf=19.0 / qcomp=0.60 / qpmin=0 / qpmax=69 / qpstep=4 / vbv_maxrate=62500 / vbv_bufsize=78125 / crf_max=0.0 / nal_hrd=none / filler=0 / ip_ratio=1.40 / aq=1:1.00
    Default                     : Yes
    Forced                      : Yes
    Color range                 : Limited
    Color primaries             : BT.709
    Transfer characteristics    : BT.709
    Matrix coefficients         : BT.709

    Audio #1
    ID                          : 2
    Format                      : AC-3
    Format/Info                 : Audio Coding 3
    Commercial name             : Dolby Digital
    Codec ID                    : A_AC3
    Duration                    : 1 h 33 min
    Bit rate mode               : Constant
    Bit rate                    : 448 kb/s
    Channel(s)                  : 6 channels
    Channel layout              : L R C LFE Ls Rs
    Sampling rate               : 48.0 kHz
    Frame rate                  : 31.250 FPS (1536 SPF)
    Bit depth                   : 16 bits
    Compression mode            : Lossy
    Stream size                 : 299 MiB (7%)
    Title                       : AC3_5.1_Bluray_Esp
    Language                    : Spanish
    Service kind                : Complete Main
    Default                     : Yes
    Forced                      : Yes

    Audio #2
    ID                          : 3
    Format                      : DTS
    Format/Info                 : Digital Theater Systems
    Codec ID                    : A_DTS
    Duration                    : 1 h 33 min
    Bit rate mode               : Constant
    Bit rate                    : 1 509 kb/s
    Channel(s)                  : 6 channels
    Channel layout              : C L R Ls Rs LFE
    Sampling rate               : 48.0 kHz
    Frame rate                  : 93.750 FPS (512 SPF)
    Bit depth                   : 24 bits
    Compression mode            : Lossy
    Stream size                 : 1 008 MiB (24%)
    Title                       : DTS_5.1_Bluray_Eng
    Language                    : English
    Default                     : No
    Forced                      : No

    Text #1
    ID                          : 4
    Format                      : PGS
    Muxing mode                 : zlib
    Codec ID                    : S_HDMV/PGS
    Codec ID/Info               : Picture based subtitle format used on BDs/HD-DVDs
    Duration                    : 1 h 27 min
    Bit rate                    : 611 b/s
    Count of elements           : 34
    Stream size                 : 391 KiB (0%)
    Title                       : Sub_Forzados [PGS]
    Language                    : Spanish
    Default                     : Yes
    Forced                      : Yes

    Text #2
    ID                          : 5
    Format                      : PGS
    Muxing mode                 : zlib
    Codec ID                    : S_HDMV/PGS
    Codec ID/Info               : Picture based subtitle format used on BDs/HD-DVDs
    Duration                    : 1 h 32 min
    Bit rate                    : 47.6 kb/s
    Count of elements           : 3592
    Stream size                 : 31.5 MiB (1%)
    Title                       : Sub_Esp [PGS]
    Language                    : Spanish
    Default                     : No
    Forced                      : No

    Text #3
    ID                          : 6
    Format                      : PGS
    Muxing mode                 : zlib
    Codec ID                    : S_HDMV/PGS
    Codec ID/Info               : Picture based subtitle format used on BDs/HD-DVDs
    Duration                    : 1 h 27 min
    Bit rate                    : 62.4 kb/s
    Count of elements           : 4306
    Stream size                 : 38.9 MiB (1%)
    Title                       : Sub_Eng [PGS]
    Language                    : English
    Default                     : No
    Forced                      : No

    Text #4
    ID                          : 7
    Format                      : UTF-8
    Codec ID                    : S_TEXT/UTF8
    Codec ID/Info               : UTF-8 Plain Text
    Duration                    : 1 h 20 min
    Bit rate                    : 0 b/s
    Count of elements           : 16
    Stream size                 : 586 Bytes (0%)
    Title                       : Sub_Forzados
    Language                    : Spanish
    Default                     : No
    Forced                      : No

    Text #5
    ID                          : 8
    Format                      : UTF-8
    Codec ID                    : S_TEXT/UTF8
    Codec ID/Info               : UTF-8 Plain Text
    Duration                    : 1 h 32 min
    Bit rate                    : 77 b/s
    Count of elements           : 1793
    Stream size                 : 51.9 KiB (0%)
    Title                       : Sub_Esp
    Language                    : Spanish
    Default                     : No
    Forced                      : No

    Menu
    00:00:00.000                : :Chapter 1
    00:05:52.519                : :Chapter 2
    00:09:57.222                : :Chapter 3
    00:14:14.729                : :Chapter 4
    00:17:30.508                : :Chapter 5
    00:19:46.394                : :Chapter 6
    00:22:39.942                : :Chapter 7
    00:27:33.235                : :Chapter 8
    00:31:30.680                : :Chapter 9
    00:33:18.872                : :Chapter 10
    00:35:39.888                : :Chapter 11
    00:40:13.036                : :Chapter 12
    00:45:05.203                : :Chapter 13
    00:49:10.114                : :Chapter 14
    00:52:36.904                : :Chapter 15
    00:56:46.028                : :Chapter 16
    01:01:54.628                : :Chapter 17
    01:05:43.857                : :Chapter 18
    01:08:37.030                : :Chapter 19
    01:13:31.032                : :Chapter 20
    01:16:44.391                : :Chapter 21
    01:19:07.618                : :Chapter 22
    01:23:54.655                : :Chapter 23
    01:27:49.598                : :Chapter 24

  • Peso: 4.03 GiB

Sinopsis

Descargar Stuber: Locos al volante (2019) Full HD 1080p Latino. La vida de un apacible conductor de Uber, Stu (Kumail Nanjiani), cambia repentinamente cuando se sube a su vehículo un pasajero (Dave Bautista) que resulta ser un policía que sigue la pista a un brutal asesino. Stu se ve obligado a luchar por salvar la vida, protagonizando una misión en la que nunca pidió participar, y cuyo principal objetivo tiene claro desde que descubre lo que está sucediendo: obtener las cinco estrellas de calificación en este movido viaje.

Ficha técnica

Video trailer de la película

Enlaces de descarga

Rip de Bluray

Descargar Stuber: Locos al volante (2019) Full HD 1080p Latino




Aportes de DPeliculasHDmega la pass es:dpeliculashdmega.org Aportes de CinemaniaHD la pass es:cinemaniahdd.com

Películas relacionadas

  • Togo (2022) NF WEB-DL 1080p Latino

    Togo (2022) NF WEB-DL 1080p Latino

    2022
    Togo (2022) NF WEB-DL 1080p Latino

    1h 35m 2022

    Descargar Togo (2022) NF WEB-DL 1080p Latino. Los narcos de poca monta están copando las calles de Montevideo...

    Director: Adrián Caetano

    Género: Crimen

    Actores: Tito Prieto

  • DC Liga De Supermascotas (2022) HD 1080p Latino

    DC Liga De Supermascotas (2022) HD 1080p Latino

    2022
    DC Liga De Supermascotas (2022) HD 1080p Latino

    1h 45m 2022

    Descargar DC Liga De Supermascotas (2022) HD 1080p Latino. Krypto el Superperro y Superman son amigos...

    Director: Sam Levine

    Género: Acción

    Actores: Yvette Nicole Brown

descargar Stuber: Locos al volante (2019) Full HD 1080p Latino Full 1080p 1080p gratis, Stuber: Locos al volante (2019) Full HD 1080p Latino Full 1080p mega 1 link, Stuber: Locos al volante (2019) Full HD 1080p Latino Full 1080p pelicula completa, descargar Stuber: Locos al volante (2019) Full HD 1080p Latino Full 1080p gratis en mega.

Stuber: Locos al volante (2019) Full HD 1080p Latino pelicula full hd, Stuber: Locos al volante (2019) Full HD 1080p Latino mega latino, Stuber: Locos al volante (2019) Full HD 1080p Latino 4k latino, Stuber: Locos al volante (2019) Full HD 1080p Latino pelicula completa, Stuber: Locos al volante (2019) Full HD 1080p Latino descargar gratis, descargar Stuber: Locos al volante (2019) Full HD 1080p Latino pelicula latino, Stuber: Locos al volante (2019) Full HD 1080p Latino 1 link mega, Stuber: Locos al volante (2019) Full HD 1080p Latino 1 link google drive, Stuber: Locos al volante (2019) Full HD 1080p Latino hd 1080p latino.
Comentarios 0