×

¿Problemas para descargar con Mozilla, EDGE? Deshabilita la opción "Abrir vinculos en una pestaña nueva" tal como lo muestra ésta imagen.

Striptease (1996) REMUX 1080p Latino

443 vistas

Información de Striptease (1996) REMUX 1080p Latino

Datos de la película

  • Calidad: Full 1080p
  • Audio: Español Latino AC3 2.0 BLURAY - Ingles DTS 5.1 BLURAY
  • Subtitulos: Español Latino PGS - Ingles PGS
  • Resolución: 1920x1080p
  • Formato: MKV
  • Codec: H.264
  • Encoder: CinefiloCool
  • Mediainfo: Clic para Mostrar Datos Ver
  • Striptease (1996) REMUX 1080p Latino-CMHDD.mkv
    Format                      : Matroska
    Format version              : Version 4
    File size                   : 16.4 GiB
    Duration                    : 1 h 57 min
    Overall bit rate mode       : Variable
    Overall bit rate            : 20.1 Mb/s
    Movie name                  : Striptease (1996) CinemaniaHDD.Net
    Encoded date                : UTC 2022-05-14 06:25:52
    Writing application         : mkvmerge v56.1.0 ('My Friend') 64-bit
    Writing library             : libebml v1.4.2 + libmatroska v1.6.4
    Cover                       : Yes
    Attachments                 : CINEMANIAHD.png / cover.jpg

    Video
    ID                          : 1
    ID in the original source m : 4113 (0x1011)
    Format                      : AVC
    Format/Info                 : Advanced Video Codec
    Format profile              : High@L4
    Format settings             : CABAC / 2 Ref Frames
    Format settings, CABAC      : Yes
    Format settings, Reference  : 2 frames
    Codec ID                    : V_MPEG4/ISO/AVC
    Duration                    : 1 h 57 min
    Bit rate mode               : Variable
    Bit rate                    : 15.4 Mb/s
    Width                       : 1 920 pixels
    Height                      : 1 080 pixels
    Display aspect ratio        : 16:9
    Frame rate mode             : Constant
    Frame rate                  : 23.976 (24000/1001) FPS
    Color space                 : YUV
    Chroma subsampling          : 4:2:0
    Bit depth                   : 8 bits
    Scan type                   : Progressive
    Bits/(Pixel*Frame)          : 0.311
    Stream size                 : 12.6 GiB (77%)
    Title                       : REMUX HD1080p [CinemaniaHDD]
    Default                     : Yes
    Forced                      : Yes
    Original source medium      : Blu-ray

    Audio #1
    ID                          : 2
    ID in the original source m : 4356 (0x1104)
    Format                      : AC-3
    Format/Info                 : Audio Coding 3
    Commercial name             : Dolby Digital
    Format settings             : Dolby Surround
    Codec ID                    : A_AC3
    Duration                    : 1 h 57 min
    Bit rate mode               : Constant
    Bit rate                    : 192 kb/s
    Channel(s)                  : 2 channels
    Channel layout              : L R
    Sampling rate               : 48.0 kHz
    Frame rate                  : 31.250 FPS (1536 SPF)
    Compression mode            : Lossy
    Stream size                 : 161 MiB (1%)
    Title                       : Español Latino [CinemaniaHDD]
    Language                    : Spanish
    Service kind                : Complete Main
    Default                     : Yes
    Forced                      : Yes
    Original source medium      : Blu-ray

    Audio #2
    ID                          : 3
    ID in the original source m : 4352 (0x1100)
    Format                      : DTS XLL
    Format/Info                 : Digital Theater Systems
    Commercial name             : DTS-HD Master Audio
    Codec ID                    : A_DTS
    Duration                    : 1 h 57 min
    Bit rate mode               : Variable
    Bit rate                    : 4 389 kb/s
    Channel(s)                  : 6 channels
    Channel layout              : C L R Ls Rs LFE
    Sampling rate               : 48.0 kHz
    Frame rate                  : 93.750 FPS (512 SPF)
    Bit depth                   : 24 bits
    Compression mode            : Lossless
    Stream size                 : 3.59 GiB (22%)
    Title                       : Ingles [CinemaniaHDD]
    Language                    : English
    Default                     : No
    Forced                      : No
    Original source medium      : Blu-ray

    Text #1
    ID                          : 4
    ID in the original source m : 4612 (0x1204)
    Format                      : PGS
    Muxing mode                 : zlib
    Codec ID                    : S_HDMV/PGS
    Codec ID/Info               : Picture based subtitle format used on BDs/HD-DVDs
    Duration                    : 1 h 56 min
    Bit rate                    : 28.3 kb/s
    Count of elements           : 2896
    Stream size                 : 23.6 MiB (0%)
    Title                       : Español-PGS [CinemaniaHDD]
    Language                    : Spanish
    Default                     : No
    Forced                      : No
    Original source medium      : Blu-ray

    Text #2
    ID                          : 5
    ID in the original source m : 4608 (0x1200)
    Format                      : PGS
    Muxing mode                 : zlib
    Codec ID                    : S_HDMV/PGS
    Codec ID/Info               : Picture based subtitle format used on BDs/HD-DVDs
    Duration                    : 1 h 56 min
    Bit rate                    : 35.0 kb/s
    Count of elements           : 3394
    Stream size                 : 29.1 MiB (0%)
    Title                       : Ingles-PGS [CinemaniaHDD]
    Language                    : English
    Default                     : No
    Forced                      : No
    Original source medium      : Blu-ray

    Text #3
    ID                          : 6
    Format                      : UTF-8
    Codec ID                    : S_TEXT/UTF8
    Codec ID/Info               : UTF-8 Plain Text
    Duration                    : 1 h 48 min
    Bit rate                    : 0 b/s
    Count of elements           : 9
    Stream size                 : 161 Bytes (0%)
    Title                       : Forzados-SRT [CinemaniaHDD]
    Language                    : Spanish
    Default                     : Yes
    Forced                      : Yes

    Text #4
    ID                          : 7
    Format                      : UTF-8
    Codec ID                    : S_TEXT/UTF8
    Codec ID/Info               : UTF-8 Plain Text
    Duration                    : 1 h 56 min
    Bit rate                    : 53 b/s
    Count of elements           : 1448
    Stream size                 : 45.7 KiB (0%)
    Title                       : Español-SRT [CinemaniaHDD]
    Language                    : Spanish
    Default                     : No
    Forced                      : No

    Menu
    00:00:00.000                : Chapter 01
    00:01:42.977                : Chapter 02
    00:04:15.672                : Chapter 03
    00:07:23.651                : Chapter 04
    00:09:57.138                : Chapter 05
    00:12:02.722                : Chapter 06
    00:16:40.249                : Chapter 07
    00:19:28.250                : Chapter 08
    00:25:19.643                : Chapter 09
    00:27:59.552                : Chapter 10
    00:30:28.243                : Chapter 11
    00:35:29.377                : Chapter 12
    00:39:47.843                : Chapter 13
    00:43:05.040                : Chapter 14
    00:47:02.194                : Chapter 15
    00:50:10.674                : Chapter 16
    00:54:04.074                : Chapter 17
    00:55:57.020                : Chapter 18
    00:59:45.873                : Chapter 19
    01:02:59.025                : Chapter 20
    01:07:27.585                : Chapter 21
    01:09:52.855                : Chapter 22
    01:12:35.893                : Chapter 23
    01:16:43.307                : Chapter 24
    01:19:47.741                : Chapter 25
    01:22:13.470                : Chapter 26
    01:25:37.423                : Chapter 27
    01:28:35.560                : Chapter 28
    01:33:15.339                : Chapter 29
    01:37:00.147                : Chapter 30
    01:40:48.417                : Chapter 31
    01:43:15.564                : Chapter 32
    01:46:26.254                : Chapter 33
    01:48:54.986                : Chapter 34
    01:52:08.888                : Chapter 35

  • Peso: 16.4 GiB

Sinopsis

Descargar Striptease (1996) REMUX 1080p Latino. Cuando Erin Grant pierde su trabajo y la custodia de su hija, se hace bailarina de striptease en un sórdido local de Miami. El propósito de Erin es reunir la gran suma de dinero que necesita para apelar la sentencia que le ha arrebatado a la niña de su lado. El potencial erótico y la sensualidad de Erin atraen la atención de un pervertido miembro del Congreso, que no se detendrá ante nada ni nadie para conseguirla.

Disponible Solo Para VIP!!!

Ficha técnica

Video trailer de la película

Enlaces de descarga

Rip de Bluray

Descargar Striptease (1996) REMUX 1080p Latino


Aportes de DPeliculasHDmega la pass es:dpeliculashdmega.org Aportes de CinemaniaHD la pass es:cinemaniahdd.com
Guardado en : Comedia , Crimen , Drama , Remux

Películas relacionadas

Striptease (1996) REMUX 1080p Latino pelicula full hd, Striptease (1996) REMUX 1080p Latino mega latino, Striptease (1996) REMUX 1080p Latino 4k latino, Striptease (1996) REMUX 1080p Latino pelicula completa, Striptease (1996) REMUX 1080p Latino descargar gratis, descargar Striptease (1996) REMUX 1080p Latino pelicula latino, Striptease (1996) REMUX 1080p Latino 1 link mega, Striptease (1996) REMUX 1080p Latino 1 link google drive, Striptease (1996) REMUX 1080p Latino hd 1080p latino.
Comentarios 0