×

¿Problemas para descargar con Mozilla, EDGE? Deshabilita la opción "Abrir vinculos en una pestaña nueva" tal como lo muestra ésta imagen.

Strictly Confidential (2024) WEB-DL 1080p Latino

66 vistas

Información de Strictly Confidential (2024) WEB-DL 1080p Latino

Datos de la película

  • Calidad: WEBDL
  • Audio: Español Latino AC3 5.1 WEB-DL - Ingles AC3 5.1 WEB-DL
  • Subtitulos: Español Latino SRT- FORZADOS SRT
  • Resolución: 1920x800p
  • Formato: MKV
  • Codec: H.264
  • Encoder: Melkor
  • Mediainfo: Clic para Mostrar Datos Ver
  • Strictly Confidential (2024) WEB 1080p Latino.mkv
    Format                      : Matroska
    Format version              : Version 4
    File size                   : 5.69 GiB
    Duration                    : 1 h 28 min
    Overall bit rate            : 9 202 kb/s
    Movie name                  : Strictly Confidential (2024) CinemaniaHDD.Net
    Encoded date                : UTC 2024-05-21 06:42:02
    Writing application         : mkvmerge v56.1.0 ('My Friend') 64-bit
    Writing library             : libebml v1.4.2 + libmatroska v1.6.4
    Attachments                 : CINEMANIAHD.png
    Site                        : CinemaniaHDD.Net
    Uploader                    : Melkor

    Video
    ID                          : 1
    Format                      : AVC
    Format/Info                 : Advanced Video Codec
    Format profile              : High@L4
    Format settings             : CABAC / 4 Ref Frames
    Format settings, CABAC      : Yes
    Format settings, Reference  : 4 frames
    Codec ID                    : V_MPEG4/ISO/AVC
    Duration                    : 1 h 28 min
    Bit rate mode               : Constant
    Bit rate                    : 8 176 kb/s
    Nominal bit rate            : 10 000 kb/s
    Width                       : 1 920 pixels
    Height                      : 800 pixels
    Display aspect ratio        : 2.40:1
    Frame rate mode             : Constant
    Frame rate                  : 23.976 (24000/1001) FPS
    Color space                 : YUV
    Chroma subsampling          : 4:2:0
    Bit depth                   : 8 bits
    Scan type                   : Progressive
    Bits/(Pixel*Frame)          : 0.222
    Stream size                 : 5.05 GiB (89%)
    Title                       : Web HD1080p [CinemaniaHDD]
    Language                    : English
    Default                     : Yes
    Forced                      : Yes
    Color range                 : Limited
    Color primaries             : BT.709
    Transfer characteristics    : BT.709
    Matrix coefficients         : BT.709

    Audio #1
    ID                          : 2
    Format                      : AC-3
    Format/Info                 : Audio Coding 3
    Commercial name             : Dolby Digital
    Codec ID                    : A_AC3
    Duration                    : 1 h 28 min
    Bit rate mode               : Constant
    Bit rate                    : 384 kb/s
    Channel(s)                  : 6 channels
    Channel layout              : L R C LFE Ls Rs
    Sampling rate               : 48.0 kHz
    Frame rate                  : 31.250 FPS (1536 SPF)
    Compression mode            : Lossy
    Stream size                 : 243 MiB (4%)
    Title                       : Español Latino [CinemaniaHDD]
    Language                    : Spanish
    Service kind                : Complete Main
    Default                     : Yes
    Forced                      : Yes

    Audio #2
    ID                          : 3
    Format                      : E-AC-3
    Format/Info                 : Enhanced AC-3
    Commercial name             : Dolby Digital Plus
    Codec ID                    : A_EAC3
    Duration                    : 1 h 28 min
    Bit rate mode               : Constant
    Bit rate                    : 640 kb/s
    Channel(s)                  : 6 channels
    Channel layout              : L R C LFE Ls Rs
    Sampling rate               : 48.0 kHz
    Frame rate                  : 31.250 FPS (1536 SPF)
    Compression mode            : Lossy
    Stream size                 : 405 MiB (7%)
    Title                       : Ingles [CinemaniaHDD]
    Language                    : English
    Service kind                : Complete Main
    Default                     : No
    Forced                      : No

    Text #1
    ID                          : 4
    Format                      : UTF-8
    Codec ID                    : S_TEXT/UTF8
    Codec ID/Info               : UTF-8 Plain Text
    Duration                    : 1 h 15 min
    Bit rate                    : 0 b/s
    Count of elements           : 2
    Stream size                 : 43.0 Bytes (0%)
    Title                       : Forzados-SRT [CinemaniaHDD]
    Language                    : Spanish
    Default                     : Yes
    Forced                      : Yes

    Text #2
    ID                          : 5
    Format                      : UTF-8
    Codec ID                    : S_TEXT/UTF8
    Codec ID/Info               : UTF-8 Plain Text
    Duration                    : 1 h 21 min
    Bit rate                    : 46 b/s
    Count of elements           : 935
    Stream size                 : 27.7 KiB (0%)
    Title                       : Español-SRT [CinemaniaHDD]
    Language                    : Spanish
    Default                     : No
    Forced                      : No

    Text #3
    ID                          : 6
    Format                      : UTF-8
    Codec ID                    : S_TEXT/UTF8
    Codec ID/Info               : UTF-8 Plain Text
    Duration                    : 1 h 25 min
    Bit rate                    : 43 b/s
    Count of elements           : 942
    Stream size                 : 27.5 KiB (0%)
    Title                       : Ingles-SRT [CinemaniaHDD]
    Language                    : English
    Default                     : No
    Forced                      : No

    Menu
    00:00:00.000                : Scene 1
    00:02:39.000                : Scene 2
    00:04:23.000                : Scene 3
    00:04:51.000                : Scene 4
    00:06:40.000                : Scene 5
    00:07:42.000                : Scene 6
    00:09:52.000                : Scene 7
    00:10:57.000                : Scene 8
    00:12:26.000                : Scene 9
    00:13:45.000                : Scene 10
    00:14:50.000                : Scene 11
    00:15:50.000                : Scene 12
    00:17:43.000                : Scene 13
    00:20:11.000                : Scene 14
    00:23:04.000                : Scene 15
    00:24:56.000                : Scene 16
    00:25:55.000                : Scene 17
    00:26:37.000                : Scene 18
    00:29:17.000                : Scene 19
    00:29:50.000                : Scene 20
    00:30:30.000                : Scene 21
    00:31:18.000                : Scene 22
    00:32:12.000                : Scene 23
    00:33:36.000                : Scene 24
    00:34:07.000                : Scene 25
    00:35:01.000                : Scene 26
    00:40:03.000                : Scene 27
    00:42:39.000                : Scene 28
    00:44:23.000                : Scene 29
    00:45:38.000                : Scene 30
    00:46:14.000                : Scene 31
    00:49:08.000                : Scene 32
    00:49:40.000                : Scene 33
    00:50:28.000                : Scene 34
    00:51:37.000                : Scene 35
    00:52:20.000                : Scene 36
    00:53:18.000                : Scene 37
    00:54:20.000                : Scene 38
    00:55:35.000                : Scene 39
    00:56:29.000                : Scene 40
    00:57:16.000                : Scene 41
    01:00:49.000                : Scene 42
    01:01:54.000                : Scene 43
    01:03:19.000                : Scene 44
    01:04:07.000                : Scene 45
    01:06:38.000                : Scene 46
    01:07:39.000                : Scene 47
    01:08:45.000                : Scene 48
    01:09:16.000                : Scene 49
    01:10:48.000                : Scene 50
    01:12:09.000                : Scene 51
    01:13:56.000                : Scene 52
    01:15:27.000                : Scene 53
    01:17:42.000                : Scene 54
    01:18:58.000                : Scene 55
    01:19:30.000                : Scene 56
    01:21:14.000                : Scene 57
    01:21:57.000                : Scene 58
    01:22:32.000                : Scene 59
    01:23:06.000                : Scene 60
    01:24:16.000                : Scene 61
    01:25:01.000                : Scene 62

  • Peso: 5.69 GiB

Sinopsis

Descargar Strictly Confidential (2024) WEB-DL 1080p Latino. Una joven atormentada se ve atraída por un mundo de seducción, duplicidad y traición mientras trata desesperadamente de descubrir el misterio que rodea el suicidio de su mejor amiga.

Ficha técnica

  • Titulo original: Strictly Confidential
  • Fecha de lanzamiento: 05-04-2024 (St. Kitts and Nevis)
  • Director: Damian Hurley
  • Género: Misterio, Suspenso

Video trailer de la película

Enlaces de descarga

Rip de Bluray

Descargar Strictly Confidential (2024) WEB-DL 1080p Latino




Aportes de DPeliculasHDmega la pass es:dpeliculashdmega.org Aportes de CinemaniaHD la pass es:cinemaniahdd.com Aportes recientes:cinemaniahdd.net
Guardado en : Misterio , Suspenso

Películas relacionadas

descargar Strictly Confidential (2024) WEB-DL 1080p Latino WEBDL 1080p gratis, Strictly Confidential (2024) WEB-DL 1080p Latino WEBDL mega 1 link, Strictly Confidential (2024) WEB-DL 1080p Latino WEBDL pelicula completa, descargar Strictly Confidential (2024) WEB-DL 1080p Latino WEBDL gratis en mega.

Strictly Confidential (2024) WEB-DL 1080p Latino pelicula full hd, Strictly Confidential (2024) WEB-DL 1080p Latino mega latino, Strictly Confidential (2024) WEB-DL 1080p Latino 4k latino, Strictly Confidential (2024) WEB-DL 1080p Latino pelicula completa, Strictly Confidential (2024) WEB-DL 1080p Latino descargar gratis, descargar Strictly Confidential (2024) WEB-DL 1080p Latino pelicula latino, Strictly Confidential (2024) WEB-DL 1080p Latino 1 link mega, Strictly Confidential (2024) WEB-DL 1080p Latino 1 link google drive, Strictly Confidential (2024) WEB-DL 1080p Latino hd 1080p latino.
Comentarios 0