×

¿Problemas para descargar con Mozilla, EDGE? Deshabilita la opción "Abrir vinculos en una pestaña nueva" tal como lo muestra ésta imagen.

Strays (2023) REMUX 1080p Latino – CMHDD

119 vistas

Información de Strays (2023) REMUX 1080p Latino – CMHDD

Datos de la película

  • Calidad:
  • Audio: Español Latino DTS 5.1 BLURAY - Ingles DTS 5.1 BLURAY
  • Subtitulos: Español Latino PGS
  • Resolución: 19201080p
  • Formato: MKV
  • Codec: H.264
  • Encoder: Dracarys
  • Mediainfo: Clic para Mostrar Datos Ver
  • Format                      : Matroska
    Format version              : Version 4
    File size                   : 25.0 GiB
    Duration                    : 1 h 33 min
    Overall bit rate mode       : Variable
    Overall bit rate            : 38.5 Mb/s
    Movie name                  : Strays (2023) REMUX 1080p Latino - CMHDD
    Encoded date                : UTC 2023-10-11 01:49:10
    Writing application         : mkvmerge v47.0.0 ('Black Flag') 64-bit
    Writing library             : libebml v1.3.10 + libmatroska v1.5.2
    Cover                       : Yes
    Attachments                 : cover.jpg

    Video
    ID                          : 1
    ID in the original source m : 4113 (0x1011)
    Format                      : AVC
    Format/Info                 : Advanced Video Codec
    Format profile              : High@L4.1
    Format settings             : CABAC / 2 Ref Frames
    Format settings, CABAC      : Yes
    Format settings, Reference  : 2 frames
    Format settings, GOP        : M=1, N=10
    Codec ID                    : V_MPEG4/ISO/AVC
    Duration                    : 1 h 33 min
    Bit rate mode               : Variable
    Bit rate                    : 34.0 Mb/s
    Width                       : 1 920 pixels
    Height                      : 1 080 pixels
    Display aspect ratio        : 16:9
    Frame rate mode             : Constant
    Frame rate                  : 23.976 (24000/1001) FPS
    Color space                 : YUV
    Chroma subsampling          : 4:2:0
    Bit depth                   : 8 bits
    Scan type                   : Progressive
    Bits/(Pixel*Frame)          : 0.684
    Stream size                 : 22.1 GiB (88%)
    Default                     : Yes
    Forced                      : No
    Original source medium      : Blu-ray

    Audio #1
    ID                          : 2
    ID in the original source m : 4352 (0x1100)
    Format                      : DTS XLL
    Format/Info                 : Digital Theater Systems
    Commercial name             : DTS-HD Master Audio
    Codec ID                    : A_DTS
    Duration                    : 1 h 33 min
    Bit rate mode               : Variable
    Bit rate                    : 3 723 kb/s
    Channel(s)                  : 6 channels
    Channel layout              : C L R Ls Rs LFE
    Sampling rate               : 48.0 kHz
    Frame rate                  : 93.750 FPS (512 SPF)
    Bit depth                   : 24 bits
    Compression mode            : Lossless
    Stream size                 : 2.42 GiB (10%)
    Language                    : English
    Default                     : No
    Forced                      : No
    Original source medium      : Blu-ray

    Audio #2
    ID                          : 3
    ID in the original source m : 4353 (0x1101)
    Format                      : DTS
    Format/Info                 : Digital Theater Systems
    Codec ID                    : A_DTS
    Duration                    : 1 h 33 min
    Bit rate mode               : Constant
    Bit rate                    : 768 kb/s
    Channel(s)                  : 6 channels
    Channel layout              : C L R Ls Rs LFE
    Sampling rate               : 48.0 kHz
    Frame rate                  : 93.750 FPS (512 SPF)
    Bit depth                   : 24 bits
    Compression mode            : Lossy
    Stream size                 : 511 MiB (2%)
    Language                    : Spanish
    Default                     : Yes
    Forced                      : No
    Original source medium      : Blu-ray

    Text #1
    ID                          : 4
    ID in the original source m : 4609 (0x1201)
    Format                      : PGS
    Muxing mode                 : zlib
    Codec ID                    : S_HDMV/PGS
    Codec ID/Info               : Picture based subtitle format used on BDs/HD-DVDs
    Duration                    : 1 h 32 min
    Bit rate                    : 60.3 kb/s
    Frame rate                  : 0.628 FPS
    Count of elements           : 3471
    Stream size                 : 39.7 MiB (0%)
    Language                    : Spanish
    Default                     : No
    Forced                      : No
    Original source medium      : Blu-ray

    Text #2
    ID                          : 5
    ID in the original source m : 4611 (0x1203)
    Format                      : PGS
    Muxing mode                 : zlib
    Codec ID                    : S_HDMV/PGS
    Codec ID/Info               : Picture based subtitle format used on BDs/HD-DVDs
    Duration                    : 1 h 6 min
    Bit rate                    : 433 b/s
    Frame rate                  : 0.007 FPS
    Count of elements           : 26
    Stream size                 : 210 KiB (0%)
    Language                    : Spanish
    Default                     : Yes
    Forced                      : No
    Original source medium      : Blu-ray

    Menu
    00:00:00.000                : en:Capítulo 01
    00:03:38.718                : en:Capítulo 02
    00:08:04.484                : en:Capítulo 03
    00:14:03.843                : en:Capítulo 04
    00:18:26.355                : en:Capítulo 05
    00:21:53.395                : en:Capítulo 06
    00:26:39.639                : en:Capítulo 07
    00:28:41.845                : en:Capítulo 08
    00:34:50.713                : en:Capítulo 09
    00:37:32.583                : en:Capítulo 10
    00:43:48.959                : en:Capítulo 11
    00:49:27.756                : en:Capítulo 12
    00:52:56.882                : en:Capítulo 13
    00:56:34.140                : en:Capítulo 14
    01:02:59.817                : en:Capítulo 15
    01:07:18.909                : en:Capítulo 16
    01:10:37.775                : en:Capítulo 17
    01:13:10.302                : en:Capítulo 18
    01:22:04.502                : en:Capítulo 19
    01:26:11.249                : en:Capítulo 20

     

  • Peso: 25.0 GiB

Sinopsis

Descargar Strays (2023) REMUX 1080p Latino – CMHDD. Un perro abandonado se une a otros perros callejeros para vengarse de su antiguo dueño.

Ficha técnica

Video trailer de la película

Enlaces de descarga

Rip de Bluray

Descargar Strays (2023) REMUX 1080p Latino – CMHDD




Aportes de DPeliculasHDmega la pass es:dpeliculashdmega.org Aportes de CinemaniaHD la pass es:cinemaniahdd.com Aportes recientes:cinemaniahdd.net
Guardado en : Aventura , Comedia , Remux

Películas relacionadas

descargar Strays (2023) REMUX 1080p Latino – CMHDD 1080p gratis, Strays (2023) REMUX 1080p Latino – CMHDD mega 1 link, Strays (2023) REMUX 1080p Latino – CMHDD pelicula completa, descargar Strays (2023) REMUX 1080p Latino – CMHDD gratis en mega.

Strays (2023) REMUX 1080p Latino – CMHDD pelicula full hd, Strays (2023) REMUX 1080p Latino – CMHDD mega latino, Strays (2023) REMUX 1080p Latino – CMHDD 4k latino, Strays (2023) REMUX 1080p Latino – CMHDD pelicula completa, Strays (2023) REMUX 1080p Latino – CMHDD descargar gratis, descargar Strays (2023) REMUX 1080p Latino – CMHDD pelicula latino, Strays (2023) REMUX 1080p Latino – CMHDD 1 link mega, Strays (2023) REMUX 1080p Latino – CMHDD 1 link google drive, Strays (2023) REMUX 1080p Latino – CMHDD hd 1080p latino.
Comentarios 0