×

¿Problemas para descargar con Mozilla, EDGE? Deshabilita la opción "Abrir vinculos en una pestaña nueva" tal como lo muestra ésta imagen.

Stranger Things (2022) Temporada 4 NF Web-DL 1080p Latino

1.422 vistas

Información de Stranger Things (2022) Temporada 4 NF Web-DL 1080p Latino

Datos de la película

  • Calidad: WEBDL
  • Audio: Español Latino E-AC3 5.1 Netflix - Ingles E-AC3 5.1 Netflix
  • Subtitulos: Español Latino SRT- FORZADOS SRT
  • Resolución: 1920x1080p
  • Formato: MKV
  • Codec: H.264
  • Encoder: CinemaniaHD
  • Mediainfo: Clic para Mostrar Datos Ver
  • Stranger Things S04E01 (2022) NF Web-DL 1080p Latino.mkv
    Format                      : Matroska
    Format version              : Version 4
    File size                   : 3.43 GiB
    Duration                    : 1 h 18 min
    Overall bit rate mode       : Variable
    Overall bit rate            : 6 288 kb/s
    Movie name                  : Stranger Things S04E01 - Chapter.One.The.Hellfire.Club CinemaniaHDD.Net
    Encoded date                : UTC 2022-05-27 18:31:52
    Writing application         : mkvmerge v56.1.0 ('My Friend') 64-bit
    Writing library             : libebml v1.4.2 + libmatroska v1.6.4
    Attachments                 : CINEMANIAHD.png

    Video
    ID                          : 1
    Format                      : AVC
    Format/Info                 : Advanced Video Codec
    Format profile              : High@L4
    Format settings             : CABAC / 4 Ref Frames
    Format settings, CABAC      : Yes
    Format settings, Reference  : 4 frames
    Codec ID                    : V_MPEG4/ISO/AVC
    Duration                    : 1 h 18 min
    Bit rate mode               : Variable
    Bit rate                    : 4 879 kb/s
    Maximum bit rate            : 20.0 Mb/s
    Width                       : 1 920 pixels
    Height                      : 1 080 pixels
    Display aspect ratio        : 16:9
    Frame rate mode             : Constant
    Frame rate                  : 23.976 (24000/1001) FPS
    Color space                 : YUV
    Chroma subsampling          : 4:2:0
    Bit depth                   : 8 bits
    Scan type                   : Progressive
    Bits/(Pixel*Frame)          : 0.098
    Stream size                 : 2.66 GiB (78%)
    Title                       : WEB HD1080p [CinemaniaHDD]
    Writing library             : x264 core 148 r2727 7d026e8
    Encoding settings           : cabac=1 / ref=4 / deblock=1:0:0 / analyse=0x3:0x111 / me=umh / subme=10 / psy=1 / psy_rd=1.00:0.00 / mixed_ref=1 / me_range=120 / chroma_me=1 / trellis=2 / 8x8dct=1 / cqm=0 / deadzone=21,11 / fast_pskip=1 / chroma_qp_offset=-2 / threads=8 / lookahead_threads=2 / sliced_threads=0 / nr=0 / decimate=1 / interlaced=0 / bluray_compat=0 / stitchable=1 / constrained_intra=0 / bframes=16 / b_pyramid=2 / b_adapt=2 / b_bias=0 / direct=3 / weightb=1 / open_gop=0 / weightp=2 / keyint=240 / keyint_min=121 / scenecut=0 / intra_refresh=0 / rc_lookahead=240 / rc=crf / mbtree=1 / crf=19.0 / qcomp=0.50 / qpmin=6 / qpmax=51 / qpstep=4 / vbv_maxrate=20000 / vbv_bufsize=25000 / crf_max=0.0 / nal_hrd=vbr / filler=0 / ip_ratio=1.40 / aq=1:0.80
    Language                    : English
    Default                     : Yes
    Forced                      : No

    Audio #1
    ID                          : 2
    Format                      : E-AC-3
    Format/Info                 : Enhanced AC-3
    Commercial name             : Dolby Digital Plus
    Codec ID                    : A_EAC3
    Duration                    : 1 h 18 min
    Bit rate mode               : Constant
    Bit rate                    : 640 kb/s
    Channel(s)                  : 6 channels
    Channel layout              : L R C LFE Ls Rs
    Sampling rate               : 48.0 kHz
    Frame rate                  : 31.250 FPS (1536 SPF)
    Compression mode            : Lossy
    Stream size                 : 358 MiB (10%)
    Title                       : Español Latino [CinemaniaHDD]
    Language                    : Spanish
    Service kind                : Complete Main
    Default                     : Yes
    Forced                      : No

    Audio #2
    ID                          : 3
    Format                      : E-AC-3 JOC
    Format/Info                 : Enhanced AC-3 with Joint Object Coding
    Commercial name             : Dolby Digital Plus with Dolby Atmos
    Codec ID                    : A_EAC3
    Duration                    : 1 h 18 min
    Bit rate mode               : Constant
    Bit rate                    : 768 kb/s
    Channel(s)                  : 6 channels
    Channel layout              : L R C LFE Ls Rs
    Sampling rate               : 48.0 kHz
    Frame rate                  : 31.250 FPS (1536 SPF)
    Compression mode            : Lossy
    Stream size                 : 429 MiB (12%)
    Title                       : Ingles [CinemaniaHDD]
    Language                    : English
    Service kind                : Complete Main
    Default                     : No
    Forced                      : No
    Complexity index            : 16
    Number of dynamic objects   : 15
    Bed channel count           : 1 channel
    Bed channel configuration   : LFE

    Text #1
    ID                          : 4
    Format                      : UTF-8
    Codec ID                    : S_TEXT/UTF8
    Codec ID/Info               : UTF-8 Plain Text
    Duration                    : 1 h 13 min
    Bit rate                    : 2 b/s
    Count of elements           : 44
    Stream size                 : 1.11 KiB (0%)
    Title                       : Forzados-SRT [CinemaniaHDD]
    Language                    : Spanish
    Default                     : Yes
    Forced                      : No

    Text #2
    ID                          : 5
    Format                      : UTF-8
    Codec ID                    : S_TEXT/UTF8
    Codec ID/Info               : UTF-8 Plain Text
    Duration                    : 1 h 13 min
    Bit rate                    : 49 b/s
    Count of elements           : 1007
    Stream size                 : 26.6 KiB (0%)
    Title                       : Español-SRT [CinemaniaHDD]
    Language                    : Spanish
    Default                     : No
    Forced                      : No

    Text #3
    ID                          : 6
    Format                      : UTF-8
    Codec ID                    : S_TEXT/UTF8
    Codec ID/Info               : UTF-8 Plain Text
    Duration                    : 1 h 12 min
    Bit rate                    : 68 b/s
    Count of elements           : 1291
    Stream size                 : 36.4 KiB (0%)
    Title                       : Ingles-SRT [CinemaniaHDD]
    Language                    : English
    Default                     : No
    Forced                      : No

  • Peso: 3.5 GiB Aprox C/U. - 26.8 GiB - 7/9 Chapters

Sinopsis

Descargar Stranger Things (2022) Temporada 04 NF Web-DL 1080p Latino. Stranger Things (originalmente titulada Montauk) es una serie de televisión dramática de misterio que está ambientada en una localidad de Indiana. Dicho lugar adquiere fama por los extraños acontecimientos que están sucediendo, similares a los del ‘Proyecto Montauk’, un supuesto proyecto secreto llevado a cabo por el gobierno de los Estados Unidos en el que se realizaban experimentos con la finalidad de desarrollar técnicas de guerra psicológica.

Argumento Cuarta Temporada: Han pasado seis meses desde que Once, Will, Mike, Lucas, Dustin, Max, entre otros, protagonizasen la batalla en el centro comercial Starcourt. Ahora, tras la pérdida de Hooper, Once se ha marchado a California junto a los Byers, sin embargo, las criaturas del Mundo del Revés siguen latentes esperando el momento perfecto para salir de nuevo y amenazar al mundo. En esta cuarta temporada surge una nueva y terrorífica amenaza sobrenatural que si el grupo de amigos consigue resolverla podría suponer el verdadero final del Mundo del Revés.

Primer Vol. Agregado 7/9 Capitulos Disponibles

Ficha técnica

Video trailer de la película

Enlaces de descarga

Rip de Bluray

Descargar Stranger Things (2022) Temporada 4 NF Web-DL 1080p Latino




Aportes de DPeliculasHDmega la pass es:dpeliculashdmega.org Aportes de CinemaniaHD la pass es:cinemaniahdd.com

Películas relacionadas

  • Nightmare Alley (2021) REMUX 4K HDR Latino – CMHDD

    Nightmare Alley (2021) REMUX 4K HDR Latino – CMHDD

    2021
    Nightmare Alley (2021) REMUX 4K HDR Latino – CMHDD

    2h 30m 2021

    Un buscavidas se compincha con una pitonisa para engañar a la gente y conseguir dinero... Remake del...

    Director: Guillermo del Toro

    Género: Crimen

    Actores: Willem Dafoe

  • Beauty (2022) NF Web-DL 1080p Latino

    Beauty (2022) NF Web-DL 1080p Latino

    2022
    Beauty (2022) NF Web-DL 1080p Latino

    0h 0m 2022

    Descargar Beauty (2022) NF Web-DL 1080p Latino. Una joven y talentosa cantante negra, lucha por mantener...

    Director: Andrew Dosunmu

    Género: Drama

    Actores: Sharon Stone

  • Ms. Marvel (2022) Temporada 1 WEB-DL 1080p Latino

    Ms. Marvel (2022) Temporada 1 WEB-DL 1080p Latino

    2022
    Ms. Marvel (2022) Temporada 1 WEB-DL 1080p Latino

    0h 50m 2022

    Descargar Ms. Marvel (2022) Temporada 1 WEB-DL 1080p Latino. Una gran estudiante, ávida jugadora, y...

    Director: Bisha K. Ali

    Género: Action & Adventure

    Actores: Zenobia Shroff

Stranger Things (2022) Temporada 4 NF Web-DL 1080p Latino pelicula full hd, Stranger Things (2022) Temporada 4 NF Web-DL 1080p Latino mega latino, Stranger Things (2022) Temporada 4 NF Web-DL 1080p Latino 4k latino, Stranger Things (2022) Temporada 4 NF Web-DL 1080p Latino pelicula completa, Stranger Things (2022) Temporada 4 NF Web-DL 1080p Latino descargar gratis, descargar Stranger Things (2022) Temporada 4 NF Web-DL 1080p Latino pelicula latino, Stranger Things (2022) Temporada 4 NF Web-DL 1080p Latino 1 link mega, Stranger Things (2022) Temporada 4 NF Web-DL 1080p Latino 1 link google drive, Stranger Things (2022) Temporada 4 NF Web-DL 1080p Latino hd 1080p latino.
Comentarios 0