×

¿Problemas para descargar con Mozilla, EDGE? Deshabilita la opción "Abrir vinculos en una pestaña nueva" tal como lo muestra ésta imagen.

Stranger Things (2017) Temporada 02 REMUX 1080p Latino

254 vistas

Información de Stranger Things (2017) Temporada 02 REMUX 1080p Latino

Datos de la película

  • Calidad: Full 1080p
  • Audio: Español Latino AC3 5.1 BLURAY - Ingles DTS 5.1 BLURAY
  • Subtitulos: Español Latino PGS - Ingles PGS
  • Resolución: 1920x1080p
  • Formato: MKV
  • Codec: H.264
  • Encoder: CinefiloCool
  • Mediainfo: Clic para Mostrar Datos Ver
  • Stranger Things S02E01 (2017) REMUX 1080p Latino-CMHDD.mkv
    Format                      : Matroska
    Format version              : Version 4
    File size                   : 11.5 GiB
    Duration                    : 46 min 55 s
    Overall bit rate mode       : Variable
    Overall bit rate            : 35.0 Mb/s
    Movie name                  : Stranger Things S02E01 - Chapter One MADMAX CinemaniaHDD.Net
    Encoded date                : UTC 2022-04-26 05:22:48
    Writing application         : mkvmerge v56.1.0 ('My Friend') 64-bit
    Writing library             : libebml v1.4.2 + libmatroska v1.6.4
    Attachments                 : CINEMANIAHD.png

    Video
    ID                          : 1
    Format                      : AVC
    Format/Info                 : Advanced Video Codec
    Format profile              : High@L4.1
    Format settings             : CABAC / 4 Ref Frames
    Format settings, CABAC      : Yes
    Format settings, Reference  : 4 frames
    Codec ID                    : V_MPEG4/ISO/AVC
    Duration                    : 46 min 55 s
    Bit rate mode               : Variable
    Bit rate                    : 31.0 Mb/s
    Maximum bit rate            : 38.5 Mb/s
    Width                       : 1 920 pixels
    Height                      : 1 080 pixels
    Display aspect ratio        : 16:9
    Frame rate mode             : Constant
    Frame rate                  : 23.976 (24000/1001) FPS
    Color space                 : YUV
    Chroma subsampling          : 4:2:0
    Bit depth                   : 8 bits
    Scan type                   : Progressive
    Bits/(Pixel*Frame)          : 0.624
    Stream size                 : 10.2 GiB (88%)
    Title                       : REMUX HD1080p [CinemaniaHDD]
    Language                    : English
    Default                     : Yes
    Forced                      : Yes

    Audio #1
    ID                          : 2
    Format                      : AC-3
    Format/Info                 : Audio Coding 3
    Commercial name             : Dolby Digital
    Codec ID                    : A_AC3
    Duration                    : 46 min 55 s
    Bit rate mode               : Constant
    Bit rate                    : 640 kb/s
    Channel(s)                  : 6 channels
    Channel layout              : L R C LFE Ls Rs
    Sampling rate               : 48.0 kHz
    Frame rate                  : 31.250 FPS (1536 SPF)
    Compression mode            : Lossy
    Stream size                 : 215 MiB (2%)
    Title                       : Español Latino [CinemaniaHDD]
    Language                    : Spanish
    Service kind                : Complete Main
    Default                     : Yes
    Forced                      : Yes

    Audio #2
    ID                          : 3
    Format                      : DTS XLL
    Format/Info                 : Digital Theater Systems
    Commercial name             : DTS-HD Master Audio
    Codec ID                    : A_DTS
    Duration                    : 46 min 55 s
    Bit rate mode               : Variable
    Bit rate                    : 3 372 kb/s
    Channel(s)                  : 6 channels
    Channel layout              : C L R Ls Rs LFE
    Sampling rate               : 48.0 kHz
    Frame rate                  : 93.750 FPS (512 SPF)
    Bit depth                   : 24 bits
    Compression mode            : Lossless
    Stream size                 : 1.11 GiB (10%)
    Title                       : Ingles [CinemaniaHDD]
    Language                    : English
    Default                     : No
    Forced                      : No

    Text #1
    ID                          : 4
    Format                      : PGS
    Muxing mode                 : zlib
    Codec ID                    : S_HDMV/PGS
    Codec ID/Info               : Picture based subtitle format used on BDs/HD-DVDs
    Duration                    : 46 min 17 s
    Bit rate                    : 970 b/s
    Count of elements           : 36
    Stream size                 : 329 KiB (0%)
    Title                       : Forzados-PGS [CinemaniaHDD]
    Language                    : Spanish
    Default                     : No
    Forced                      : No

    Text #2
    ID                          : 5
    Format                      : PGS
    Muxing mode                 : zlib
    Codec ID                    : S_HDMV/PGS
    Codec ID/Info               : Picture based subtitle format used on BDs/HD-DVDs
    Duration                    : 44 min 52 s
    Bit rate                    : 30.6 kb/s
    Count of elements           : 1021
    Stream size                 : 9.84 MiB (0%)
    Title                       : Español-PGS [CinemaniaHDD]
    Language                    : Spanish
    Default                     : No
    Forced                      : No

    Text #3
    ID                          : 6
    Format                      : PGS
    Muxing mode                 : zlib
    Codec ID                    : S_HDMV/PGS
    Codec ID/Info               : Picture based subtitle format used on BDs/HD-DVDs
    Duration                    : 44 min 39 s
    Bit rate                    : 39.7 kb/s
    Count of elements           : 1161
    Stream size                 : 12.7 MiB (0%)
    Title                       : Ingles-PGS [CinemaniaHDD]
    Language                    : English
    Default                     : No
    Forced                      : No

    Text #4
    ID                          : 7
    Format                      : UTF-8
    Codec ID                    : S_TEXT/UTF8
    Codec ID/Info               : UTF-8 Plain Text
    Duration                    : 46 min 17 s
    Bit rate                    : 1 b/s
    Count of elements           : 18
    Stream size                 : 439 Bytes (0%)
    Title                       : Forzados-SRT [CinemaniaHDD]
    Language                    : Spanish
    Default                     : Yes
    Forced                      : Yes

    Text #5
    ID                          : 8
    Format                      : UTF-8
    Codec ID                    : S_TEXT/UTF8
    Codec ID/Info               : UTF-8 Plain Text
    Duration                    : 44 min 52 s
    Bit rate                    : 50 b/s
    Count of elements           : 510
    Stream size                 : 16.4 KiB (0%)
    Title                       : Español-SRT [CinemaniaHDD]
    Language                    : Spanish
    Default                     : No
    Forced                      : No

    Menu
    00:00:00.000                : Chapter 1
    00:10:07.941                : Chapter 2
    00:20:38.988                : Chapter 3
    00:30:07.097                : Chapter 4
    00:40:09.991                : Chapter 5
    00:45:02.783                : Chapter 6

  • Peso: 11.0GiB - 15.4GiB Aprox C/U. | 112 GiB Total.

Sinopsis

Descargar Stranger Things (2017) Temporada 02 REMUX 1080p Latino. Stranger Things (originalmente titulada Montauk) es una serie de televisión dramática de misterio que está ambientada en una localidad de Indiana. Dicho lugar adquiere fama por los extraños acontecimientos que están sucediendo, similares a los del ‘Proyecto Montauk’, un supuesto proyecto secreto llevado a cabo por el gobierno de los Estados Unidos en el que se realizaban experimentos con la finalidad de desarrollar técnicas de guerra psicológica.

Argumento Segunda Temporada: En la segunda temporada, vemos Hawkins un año después de los acontecimientos de la primera temporada. Will Byers vuelve tras haber estado en El otro lado. La noche de Halloween, Will ve una silueta monstruosa en el cielo. Como ya nos mostraba la escena final de la anterior temporada, Will aun tiene dentro de él parte del hogar del Demogorgon. Su familia y amigos vuelven a unirse para salvarle. Dustin y Lucas conocen a Max, una chica del colegio, que incluirán en su grupo. Aunque no están todos: Mike sigue en busca de Once.

Disponible Solo para VIP!!

Ficha técnica

Video trailer de la película

Enlaces de descarga

Rip de Bluray

Descargar Stranger Things (2017) Temporada 02 REMUX 1080p Latino


Aportes de DPeliculasHDmega la pass es:dpeliculashdmega.org Aportes de CinemaniaHD la pass es:cinemaniahdd.com
Guardado en : Drama , Misterio , Remux , Sci-Fi & Fantasy , Series

Películas relacionadas

  • Jaula Mental (2022) HD 1080p Latino

    Jaula Mental (2022) HD 1080p Latino

    2022
    Jaula Mental (2022) HD 1080p Latino

    1h 47m 2022

    Descargar Jaula Mental (2022) HD 1080p Latino. Cuando un asesino que imita otros crímenes comienza a...

    Director: Mauro Borrelli

    Género: Crimen

    Actores: Victoria Fox

  • Jaula Mental (2022) PLACEBO Full HD 1080p Latino

    Jaula Mental (2022) PLACEBO Full HD 1080p Latino

    2022
    Jaula Mental (2022) PLACEBO Full HD 1080p Latino

    1h 47m 2022

    Descargar Jaula Mental (2022) PLACEBO Full HD 1080p Latino. Cuando un asesino que imita otros crímenes...

    Director: Mauro Borrelli

    Género: Crimen

    Actores: Victoria Fox

  • Jaula Mental (2022) REMUX 1080p Latino

    Jaula Mental (2022) REMUX 1080p Latino

    2022
    Jaula Mental (2022) REMUX 1080p Latino

    1h 47m 2022

    Descargar Jaula Mental (2022) REMUX 1080p Latino. Cuando un asesino que imita otros crímenes comienza...

    Director: Mauro Borrelli

    Género: Crimen

    Actores: Victoria Fox

  • Transfusion (2023) HD 1080p Latino

    Transfusion (2023) HD 1080p Latino

    2023
    Transfusion (2023) HD 1080p Latino

    1h 45m 2023

    Descargar Transfusion (2023) HD 1080p Latino. Un antiguo agente de las Fuerzas Especiales se ve empujado...

    Director: Matt Nable

    Género: Crimen

    Actores: Trystan Go

  • Transfusion (2023) PLACEBO Full HD 1080p Latino

    Transfusion (2023) PLACEBO Full HD 1080p Latino

    2023
    Transfusion (2023) PLACEBO Full HD 1080p Latino

    1h 45m 2023

    Descargar Transfusion (2023) PLACEBO Full HD 1080p Latino. Un antiguo agente de las Fuerzas Especiales...

    Director: Matt Nable

    Género: Crimen

    Actores: Trystan Go

descargar Stranger Things (2017) Temporada 02 REMUX 1080p Latino Full 1080p 1080p gratis, Stranger Things (2017) Temporada 02 REMUX 1080p Latino Full 1080p mega 1 link, Stranger Things (2017) Temporada 02 REMUX 1080p Latino Full 1080p serie completa, descargar Stranger Things (2017) Temporada 02 REMUX 1080p Latino Full 1080p gratis en mega.

Stranger Things (2017) Temporada 02 REMUX 1080p Latino pelicula full hd, Stranger Things (2017) Temporada 02 REMUX 1080p Latino mega latino, Stranger Things (2017) Temporada 02 REMUX 1080p Latino 4k latino, Stranger Things (2017) Temporada 02 REMUX 1080p Latino pelicula completa, Stranger Things (2017) Temporada 02 REMUX 1080p Latino descargar gratis, descargar Stranger Things (2017) Temporada 02 REMUX 1080p Latino pelicula latino, Stranger Things (2017) Temporada 02 REMUX 1080p Latino 1 link mega, Stranger Things (2017) Temporada 02 REMUX 1080p Latino 1 link google drive, Stranger Things (2017) Temporada 02 REMUX 1080p Latino hd 1080p latino.
Comentarios 0