×

¿Problemas para descargar con Mozilla, EDGE? Deshabilita la opción "Abrir vinculos en una pestaña nueva" tal como lo muestra ésta imagen.

Stranger Things (2017) Temporada 02 Full HD 1080p Latino

617 vistas

Información de Stranger Things (2017) Temporada 02 Full HD 1080p Latino

Datos de la película

  • Calidad: Full 1080p
  • Audio: Español Latino AC3 5.1 BLURAY - Ingles DTS 5.1 BLURAY
  • Subtitulos: Español Latino PGS - Ingles PGS
  • Resolución: 1920x1080p
  • Formato: MKV
  • Codec: H.264
  • Encoder: CinefiloCool
  • Mediainfo: Clic para Mostrar Datos Ver
  • Stranger Things S02E01 (2017) Full HD 1080p Latino-CMHDD.mkv
    Format                      : Matroska
    Format version              : Version 4
    File size                   : 2.14 GiB
    Duration                    : 46 min 55 s
    Overall bit rate            : 6 538 kb/s
    Movie name                  : Stranger Things S02E01 - Chapter One MADMAX CinemaniaHDD.Net
    Encoded date                : UTC 2022-04-28 05:05:34
    Writing application         : mkvmerge v56.1.0 ('My Friend') 64-bit
    Writing library             : libebml v1.4.2 + libmatroska v1.6.4
    Attachments                 : CINEMANIAHD.png

    Video
    ID                          : 1
    Format                      : AVC
    Format/Info                 : Advanced Video Codec
    Format profile              : High@L4.1
    Format settings             : CABAC / 4 Ref Frames
    Format settings, CABAC      : Yes
    Format settings, Reference  : 4 frames
    Codec ID                    : V_MPEG4/ISO/AVC
    Duration                    : 46 min 55 s
    Bit rate                    : 4 366 kb/s
    Width                       : 1 920 pixels
    Height                      : 1 080 pixels
    Display aspect ratio        : 16:9
    Frame rate mode             : Constant
    Frame rate                  : 23.976 (24000/1001) FPS
    Color space                 : YUV
    Chroma subsampling          : 4:2:0
    Bit depth                   : 8 bits
    Scan type                   : Progressive
    Bits/(Pixel*Frame)          : 0.088
    Stream size                 : 1.43 GiB (67%)
    Title                       : Full HD1080p [CinemaniaHDD]
    Writing library             : x264 core 163 r3059 b684ebe0
    Encoding settings           : cabac=1 / ref=4 / deblock=1:0:0 / analyse=0x3:0x133 / me=esa / subme=10 / psy=1 / psy_rd=1.00:0.00 / mixed_ref=1 / me_range=24 / chroma_me=1 / trellis=2 / 8x8dct=1 / cqm=0 / deadzone=21,11 / fast_pskip=1 / chroma_qp_offset=-2 / threads=24 / lookahead_threads=4 / sliced_threads=0 / nr=0 / decimate=1 / interlaced=0 / bluray_compat=0 / constrained_intra=0 / bframes=8 / b_pyramid=2 / b_adapt=2 / b_bias=0 / direct=3 / weightb=1 / open_gop=0 / weightp=2 / keyint=240 / keyint_min=24 / scenecut=40 / intra_refresh=0 / rc_lookahead=60 / rc=crf / mbtree=1 / crf=20.0 / qcomp=0.60 / qpmin=0 / qpmax=69 / qpstep=4 / vbv_maxrate=62500 / vbv_bufsize=78125 / crf_max=0.0 / nal_hrd=none / filler=0 / ip_ratio=1.40 / aq=1:1.00
    Default                     : Yes
    Forced                      : Yes
    Color range                 : Limited
    Color primaries             : BT.709
    Transfer characteristics    : BT.709
    Matrix coefficients         : BT.709

    Audio #1
    ID                          : 2
    Format                      : AC-3
    Format/Info                 : Audio Coding 3
    Commercial name             : Dolby Digital
    Codec ID                    : A_AC3
    Duration                    : 46 min 55 s
    Bit rate mode               : Constant
    Bit rate                    : 640 kb/s
    Channel(s)                  : 6 channels
    Channel layout              : L R C LFE Ls Rs
    Sampling rate               : 48.0 kHz
    Frame rate                  : 31.250 FPS (1536 SPF)
    Compression mode            : Lossy
    Stream size                 : 215 MiB (10%)
    Title                       : Español Latino [CinemaniaHDD]
    Language                    : Spanish
    Service kind                : Complete Main
    Default                     : Yes
    Forced                      : Yes

    Audio #2
    ID                          : 3
    Format                      : DTS
    Format/Info                 : Digital Theater Systems
    Codec ID                    : A_DTS
    Duration                    : 46 min 55 s
    Bit rate mode               : Constant
    Bit rate                    : 1 509 kb/s
    Channel(s)                  : 6 channels
    Channel layout              : C L R Ls Rs LFE
    Sampling rate               : 48.0 kHz
    Frame rate                  : 93.750 FPS (512 SPF)
    Bit depth                   : 24 bits
    Compression mode            : Lossy
    Stream size                 : 506 MiB (23%)
    Title                       : Ingles [CinemaniaHDD]
    Language                    : English
    Default                     : No
    Forced                      : No

    Text #1
    ID                          : 4
    Format                      : PGS
    Muxing mode                 : zlib
    Codec ID                    : S_HDMV/PGS
    Codec ID/Info               : Picture based subtitle format used on BDs/HD-DVDs
    Duration                    : 46 min 17 s
    Bit rate                    : 970 b/s
    Count of elements           : 36
    Stream size                 : 329 KiB (0%)
    Title                       : Forzados-PGS [CinemaniaHDD]
    Language                    : Spanish
    Default                     : No
    Forced                      : No

    Text #2
    ID                          : 5
    Format                      : PGS
    Muxing mode                 : zlib
    Codec ID                    : S_HDMV/PGS
    Codec ID/Info               : Picture based subtitle format used on BDs/HD-DVDs
    Duration                    : 44 min 52 s
    Bit rate                    : 30.6 kb/s
    Count of elements           : 1021
    Stream size                 : 9.84 MiB (0%)
    Title                       : Español-PGS [CinemaniaHDD]
    Language                    : Spanish
    Default                     : No
    Forced                      : No

    Text #3
    ID                          : 6
    Format                      : PGS
    Muxing mode                 : zlib
    Codec ID                    : S_HDMV/PGS
    Codec ID/Info               : Picture based subtitle format used on BDs/HD-DVDs
    Duration                    : 44 min 39 s
    Bit rate                    : 39.7 kb/s
    Count of elements           : 1161
    Stream size                 : 12.7 MiB (1%)
    Title                       : Ingles-PGS [CinemaniaHDD]
    Language                    : English
    Default                     : No
    Forced                      : No

    Text #4
    ID                          : 7
    Format                      : UTF-8
    Codec ID                    : S_TEXT/UTF8
    Codec ID/Info               : UTF-8 Plain Text
    Duration                    : 46 min 17 s
    Bit rate                    : 1 b/s
    Count of elements           : 18
    Stream size                 : 439 Bytes (0%)
    Title                       : Forzados-SRT [CinemaniaHDD]
    Language                    : Spanish
    Default                     : Yes
    Forced                      : Yes

    Text #5
    ID                          : 8
    Format                      : UTF-8
    Codec ID                    : S_TEXT/UTF8
    Codec ID/Info               : UTF-8 Plain Text
    Duration                    : 44 min 52 s
    Bit rate                    : 50 b/s
    Count of elements           : 510
    Stream size                 : 16.4 KiB (0%)
    Title                       : Español-SRT [CinemaniaHDD]
    Language                    : Spanish
    Default                     : No
    Forced                      : No

    Menu
    00:00:00.000                : Chapter 1
    00:10:07.941                : Chapter 2
    00:20:38.988                : Chapter 3
    00:30:07.097                : Chapter 4
    00:40:09.991                : Chapter 5
    00:45:02.783                : Chapter 6

  • Peso: 1.66GiB - 2.52GiB Aprox C/U. | 19.6 GiB Total.

Sinopsis

Descargar Stranger Things (2017) Temporada 02 Full HD 1080p Latino. Stranger Things (originalmente titulada Montauk) es una serie de televisión dramática de misterio que está ambientada en una localidad de Indiana. Dicho lugar adquiere fama por los extraños acontecimientos que están sucediendo, similares a los del ‘Proyecto Montauk’, un supuesto proyecto secreto llevado a cabo por el gobierno de los Estados Unidos en el que se realizaban experimentos con la finalidad de desarrollar técnicas de guerra psicológica.

Argumento Segunda Temporada: En la segunda temporada, vemos Hawkins un año después de los acontecimientos de la primera temporada. Will Byers vuelve tras haber estado en El otro lado. La noche de Halloween, Will ve una silueta monstruosa en el cielo. Como ya nos mostraba la escena final de la anterior temporada, Will aun tiene dentro de él parte del hogar del Demogorgon. Su familia y amigos vuelven a unirse para salvarle. Dustin y Lucas conocen a Max, una chica del colegio, que incluirán en su grupo. Aunque no están todos: Mike sigue en busca de Once.

Ficha técnica

Video trailer de la película

Enlaces de descarga

Rip de Bluray

Descargar Stranger Things (2017) Temporada 02 Full HD 1080p Latino




Aportes de DPeliculasHDmega la pass es:dpeliculashdmega.org Aportes de CinemaniaHD la pass es:cinemaniahdd.com

Películas relacionadas

  • Stromboli (2022) NF WEB-DL 1080p Latino

    Stromboli (2022) NF WEB-DL 1080p Latino

    2022
    Stromboli (2022) NF WEB-DL 1080p Latino

    1h 26m 2022

    Descargar Stromboli (2022) NF WEB-DL 1080p Latino. Sara, una mujer que se ha divorciado recientemente,...

    Director: Michiel van Erp

    Género: Drama

    Actores: Tim McInnerny

  • Infiesto (2023) NF WEB-DL 1080p Castellano

    Infiesto (2023) NF WEB-DL 1080p Castellano

    2023
    Infiesto (2023) NF WEB-DL 1080p Castellano

    1h 36m 2023

    Descargar Infiesto (2023) NF WEB-DL 1080p Castellano. Mientras el coronavirus trastoca sus vidas, dos...

    Director: Patxi Amezcua

    Género: Crimen

    Actores: Luis Zahera

  • Espiritu Libre (2023) NF WEB-DL 1080p Latino

    Espiritu Libre (2023) NF WEB-DL 1080p Latino

    2023
    Espiritu Libre (2023) NF WEB-DL 1080p Latino

    1h 49m 2023

    Descargar Espiritu Libre (2023) NF WEB-DL 1080p Latino. La película se basa en la increíble historia...

    Director: Sarah Spillane

    Género: Aventura

    Actores: Vivien Turner

descargar Stranger Things (2017) Temporada 02 Full HD 1080p Latino Full 1080p 1080p gratis, Stranger Things (2017) Temporada 02 Full HD 1080p Latino Full 1080p mega 1 link, Stranger Things (2017) Temporada 02 Full HD 1080p Latino Full 1080p serie completa, descargar Stranger Things (2017) Temporada 02 Full HD 1080p Latino Full 1080p gratis en mega.

Stranger Things (2017) Temporada 02 Full HD 1080p Latino pelicula full hd, Stranger Things (2017) Temporada 02 Full HD 1080p Latino mega latino, Stranger Things (2017) Temporada 02 Full HD 1080p Latino 4k latino, Stranger Things (2017) Temporada 02 Full HD 1080p Latino pelicula completa, Stranger Things (2017) Temporada 02 Full HD 1080p Latino descargar gratis, descargar Stranger Things (2017) Temporada 02 Full HD 1080p Latino pelicula latino, Stranger Things (2017) Temporada 02 Full HD 1080p Latino 1 link mega, Stranger Things (2017) Temporada 02 Full HD 1080p Latino 1 link google drive, Stranger Things (2017) Temporada 02 Full HD 1080p Latino hd 1080p latino.
Comentarios 0