×

¿Problemas para descargar con Mozilla, EDGE? Deshabilita la opción "Abrir vinculos en una pestaña nueva" tal como lo muestra ésta imagen.

Stranger Things (2016) Temporada 01 REMUX 1080p Latino

346 vistas

Información de Stranger Things (2016) Temporada 01 REMUX 1080p Latino

Datos de la película

  • Calidad: Full 1080p
  • Audio: Se especifica abajo de la Sinopsis
  • Subtitulos: Español Latino SRT- FORZADOS SRT
  • Resolución: 1920x1080p
  • Formato: MKV
  • Codec: H.264
  • Encoder: CinefiloCool
  • Mediainfo: Clic para Mostrar Datos Ver
  • Stranger Things S01E01 (2016) REMUX 1080p Latino-CMHDD.mkv
    Format                      : Matroska
    Format version              : Version 4
    File size                   : 9.76 GiB
    Duration                    : 47 min 32 s
    Overall bit rate mode       : Variable
    Overall bit rate            : 29.4 Mb/s
    Movie name                  : Stranger Things S01E01 - Chapter One The Vanishing of Will Byers CinemaniaHDD.Net
    Encoded date                : UTC 2022-04-25 04:53:47
    Writing application         : mkvmerge v56.1.0 ('My Friend') 64-bit
    Writing library             : libebml v1.4.2 + libmatroska v1.6.4
    Attachments                 : CINEMANIAHD.png

    Video
    ID                          : 1
    Format                      : AVC
    Format/Info                 : Advanced Video Codec
    Format profile              : High@L4.1
    Format settings             : CABAC / 4 Ref Frames
    Format settings, CABAC      : Yes
    Format settings, Reference  : 4 frames
    Codec ID                    : V_MPEG4/ISO/AVC
    Duration                    : 47 min 32 s
    Bit rate mode               : Variable
    Bit rate                    : 24.9 Mb/s
    Maximum bit rate            : 38.0 Mb/s
    Width                       : 1 920 pixels
    Height                      : 1 080 pixels
    Display aspect ratio        : 16:9
    Frame rate mode             : Constant
    Frame rate                  : 23.976 (24000/1001) FPS
    Color space                 : YUV
    Chroma subsampling          : 4:2:0
    Bit depth                   : 8 bits
    Scan type                   : Progressive
    Bits/(Pixel*Frame)          : 0.501
    Stream size                 : 8.28 GiB (85%)
    Title                       : REMUX HD1080p [CinemaniaHDD]
    Language                    : English
    Default                     : Yes
    Forced                      : Yes

    Audio #1
    ID                          : 2
    Format                      : AC-3
    Format/Info                 : Audio Coding 3
    Commercial name             : Dolby Digital
    Codec ID                    : A_AC3
    Duration                    : 47 min 32 s
    Bit rate mode               : Constant
    Bit rate                    : 640 kb/s
    Channel(s)                  : 6 channels
    Channel layout              : L R C LFE Ls Rs
    Sampling rate               : 48.0 kHz
    Frame rate                  : 31.250 FPS (1536 SPF)
    Compression mode            : Lossy
    Stream size                 : 218 MiB (2%)
    Title                       : Español Latino [CinemaniaHDD]
    Language                    : Spanish
    Service kind                : Complete Main
    Default                     : Yes
    Forced                      : Yes

    Audio #2
    ID                          : 3
    Format                      : MLP FBA
    Format/Info                 : Meridian Lossless Packing FBA
    Commercial name             : Dolby TrueHD
    Codec ID                    : A_TRUEHD
    Duration                    : 47 min 32 s
    Bit rate mode               : Variable
    Bit rate                    : 3 098 kb/s
    Maximum bit rate            : 4 884 kb/s
    Channel(s)                  : 6 channels
    Channel layout              : L R C LFE Ls Rs
    Sampling rate               : 48.0 kHz
    Frame rate                  : 1 200.000 FPS (40 SPF)
    Compression mode            : Lossless
    Stream size                 : 1.03 GiB (11%)
    Title                       : Ingles [CinemaniaHDD]
    Language                    : English
    Default                     : No
    Forced                      : No

    Audio #3
    ID                          : 4
    Format                      : AC-3
    Format/Info                 : Audio Coding 3
    Commercial name             : Dolby Digital
    Codec ID                    : A_AC3
    Duration                    : 47 min 32 s
    Bit rate mode               : Constant
    Bit rate                    : 640 kb/s
    Channel(s)                  : 6 channels
    Channel layout              : L R C LFE Ls Rs
    Sampling rate               : 48.0 kHz
    Frame rate                  : 31.250 FPS (1536 SPF)
    Compression mode            : Lossy
    Stream size                 : 218 MiB (2%)
    Title                       : Ingles-AC3 [CinemaniaHDD]
    Language                    : English
    Service kind                : Complete Main
    Default                     : No
    Forced                      : No

    Text #1
    ID                          : 5
    Format                      : UTF-8
    Codec ID                    : S_TEXT/UTF8
    Codec ID/Info               : UTF-8 Plain Text
    Duration                    : 30 min 33 s
    Bit rate                    : 2 b/s
    Count of elements           : 14
    Stream size                 : 525 Bytes (0%)
    Title                       : Forzados-SRT [CinemaniaHDD]
    Language                    : Spanish
    Default                     : Yes
    Forced                      : Yes

    Text #2
    ID                          : 6
    Format                      : UTF-8
    Codec ID                    : S_TEXT/UTF8
    Codec ID/Info               : UTF-8 Plain Text
    Duration                    : 45 min 45 s
    Bit rate                    : 59 b/s
    Count of elements           : 631
    Stream size                 : 19.9 KiB (0%)
    Title                       : Español-SRT [CinemaniaHDD]
    Language                    : Spanish
    Default                     : No
    Forced                      : No

    Text #3
    ID                          : 7
    Format                      : PGS
    Muxing mode                 : zlib
    Codec ID                    : S_HDMV/PGS
    Codec ID/Info               : Picture based subtitle format used on BDs/HD-DVDs
    Duration                    : 46 min 12 s
    Bit rate                    : 47.1 kb/s
    Count of elements           : 1539
    Stream size                 : 15.6 MiB (0%)
    Title                       : Ingles [CinemaniaHDD]
    Language                    : English
    Default                     : No
    Forced                      : No

    Menu
    00:00:00.000                : Chapter 1
    00:04:53.835                : Chapter 2
    00:08:25.714                : Chapter 3
    00:12:46.099                : Chapter 4
    00:18:52.882                : Chapter 5
    00:21:17.776                : Chapter 6
    00:25:28.944                : Chapter 7
    00:30:08.890                : Chapter 8
    00:35:49.689                : Chapter 9
    00:38:48.493                : Chapter 10
    00:46:17.942                : Chapter 11

  • Peso: 8.4GiB - 11.1GiB Aprox C/U. | 80.8 GiB Total.

Sinopsis

Descargar Stranger Things (2016) Temporada 01 REMUX 1080p Latino. Stranger Things (originalmente titulada Montauk) es una serie de televisión dramática de misterio que está ambientada en una localidad de Indiana. Dicho lugar adquiere fama por los extraños acontecimientos que están sucediendo, similares a los del ‘Proyecto Montauk’, un supuesto proyecto secreto llevado a cabo por el gobierno de los Estados Unidos en el que se realizaban experimentos con la finalidad de desarrollar técnicas de guerra psicológica.

Argumento Primera Temporada: La historia narra la súbita desaparición de un niño en esta ciudad durante la década de los 80, hecho que destapa los extraños sucesos que tienen lugar en la zona, producto de una serie de experimentos que realiza el gobierno. Además, en la ciudad aparecen fuerzas sobrenaturales inquietantes y una niña muy perturbadora.

Audio:
Español Latino Sync AC3 5.1 NF – Ingles TrueHD + AC3 5.1 Bluray
Audio Latino: CinefiloCool Thanks!!🙂
Disponible Solo para VIP!!

Ficha técnica

Video trailer de la película

Enlaces de descarga

Rip de Bluray

Descargar Stranger Things (2016) Temporada 01 REMUX 1080p Latino


Aportes de DPeliculasHDmega la pass es:dpeliculashdmega.org Aportes de CinemaniaHD la pass es:cinemaniahdd.com
Guardado en : Drama , Misterio , Remux , Sci-Fi & Fantasy , Series

Películas relacionadas

  • Hombre de familia (2000) REMUX 1080p Latino

    Hombre de familia (2000) REMUX 1080p Latino

    2000
    Hombre de familia (2000) REMUX 1080p Latino

    2h 1m 2000

    Descargar Hombre de familia (2000) REMUX 1080p Latino. Jack Campbell es un egocéntrico broker de Wall...

    Director: Robert Schroer

    Género: Comedia

    Actores: Wass Stevens

  • Anon (2018) REMUX 1080p Latino

    Anon (2018) REMUX 1080p Latino

    2018
    Anon (2018) REMUX 1080p Latino

    1h 40m 2018

    Descargar Anon (2018) REMUX 1080p Latino. Anon nos lleva hasta un futuro no muy lejano al estilo soviético,...

    Director: Sarah Campbell

    Género: Ciencia ficción

    Actores: Zion Lee

  • Te Amo Brother (2009) REMUX 1080p Latino

    Te Amo Brother (2009) REMUX 1080p Latino

    2009
    Te Amo Brother (2009) REMUX 1080p Latino

    1h 45m 2009

    Descargar Te Amo Brother (2009) REMUX 1080p Latino. Peter Klaven (Paul Rudd) es un joven que vive muy...

    Director: Scott Robertson

    Género: Comedia

    Actores: Vicki Davis

descargar Stranger Things (2016) Temporada 01 REMUX 1080p Latino Full 1080p 1080p gratis, Stranger Things (2016) Temporada 01 REMUX 1080p Latino Full 1080p mega 1 link, Stranger Things (2016) Temporada 01 REMUX 1080p Latino Full 1080p serie completa, descargar Stranger Things (2016) Temporada 01 REMUX 1080p Latino Full 1080p gratis en mega.

Stranger Things (2016) Temporada 01 REMUX 1080p Latino pelicula full hd, Stranger Things (2016) Temporada 01 REMUX 1080p Latino mega latino, Stranger Things (2016) Temporada 01 REMUX 1080p Latino 4k latino, Stranger Things (2016) Temporada 01 REMUX 1080p Latino pelicula completa, Stranger Things (2016) Temporada 01 REMUX 1080p Latino descargar gratis, descargar Stranger Things (2016) Temporada 01 REMUX 1080p Latino pelicula latino, Stranger Things (2016) Temporada 01 REMUX 1080p Latino 1 link mega, Stranger Things (2016) Temporada 01 REMUX 1080p Latino 1 link google drive, Stranger Things (2016) Temporada 01 REMUX 1080p Latino hd 1080p latino.
Comentarios 0