×

¿Problemas para descargar con Mozilla, EDGE? Deshabilita la opción "Abrir vinculos en una pestaña nueva" tal como lo muestra ésta imagen.

Stranger Things (2016) Temporada 01 Full HD 1080p Latino

8.584 vistas

Información de Stranger Things (2016) Temporada 01 Full HD 1080p Latino

Datos de la película

  • Calidad: Full 1080p
  • Audio: Español Latino AC3 5.1 Netflix - Ingles AC3 5.1 BLURAY
  • Subtitulos: Español Latino SRT- FORZADOS SRT
  • Resolución: 1920X1080p
  • Formato: MKV
  • Codec: H.264
  • Encoder: Dpelis | CinefiloCool
  • Mediainfo: Clic para Mostrar Datos Ver
  • Stranger Things S01E01 (2016) Full HD 1080p Latino-CMHDD.mkv
    Format                      : Matroska
    Format version              : Version 4
    File size                   : 2.53 GiB
    Duration                    : 47 min 32 s
    Overall bit rate            : 7 605 kb/s
    Movie name                  : Stranger Things S01E01 - Chapter One The Vanishing of Will Byers CinemaniaHDD.Net
    Encoded date                : UTC 2022-04-29 21:48:50
    Writing application         : mkvmerge v56.1.0 ('My Friend') 64-bit
    Writing library             : libebml v1.4.2 + libmatroska v1.6.4
    Attachments                 : CINEMANIAHD.png

    Video
    ID                          : 1
    Format                      : AVC
    Format/Info                 : Advanced Video Codec
    Format profile              : High@L4.1
    Format settings             : CABAC / 4 Ref Frames
    Format settings, CABAC      : Yes
    Format settings, Reference  : 4 frames
    Codec ID                    : V_MPEG4/ISO/AVC
    Duration                    : 47 min 32 s
    Bit rate                    : 6 308 kb/s
    Width                       : 1 920 pixels
    Height                      : 1 080 pixels
    Display aspect ratio        : 16:9
    Frame rate mode             : Constant
    Frame rate                  : 23.976 (24000/1001) FPS
    Color space                 : YUV
    Chroma subsampling          : 4:2:0
    Bit depth                   : 8 bits
    Scan type                   : Progressive
    Bits/(Pixel*Frame)          : 0.127
    Stream size                 : 2.10 GiB (83%)
    Title                       : Full HD1080p [CinemaniaHDD]
    Writing library             : x264 core 148 r2708 86b7198
    Encoding settings           : cabac=1 / ref=4 / deblock=1:0:0 / analyse=0x3:0x133 / me=esa / subme=10 / psy=1 / psy_rd=1.00:0.00 / mixed_ref=1 / me_range=24 / chroma_me=1 / trellis=2 / 8x8dct=1 / cqm=0 / deadzone=21,11 / fast_pskip=1 / chroma_qp_offset=-2 / threads=34 / lookahead_threads=5 / sliced_threads=0 / nr=0 / decimate=1 / interlaced=0 / bluray_compat=0 / constrained_intra=0 / bframes=8 / b_pyramid=2 / b_adapt=2 / b_bias=0 / direct=3 / weightb=1 / open_gop=0 / weightp=2 / keyint=240 / keyint_min=24 / scenecut=40 / intra_refresh=0 / rc_lookahead=60 / rc=crf / mbtree=1 / crf=20.0 / qcomp=0.60 / qpmin=0 / qpmax=69 / qpstep=4 / vbv_maxrate=62500 / vbv_bufsize=78125 / crf_max=0.0 / nal_hrd=none / filler=0 / ip_ratio=1.40 / aq=1:1.00
    Language                    : English
    Default                     : Yes
    Forced                      : Yes
    Color range                 : Limited
    Color primaries             : BT.709
    Transfer characteristics    : BT.709
    Matrix coefficients         : BT.709

    Audio #1
    ID                          : 2
    Format                      : AC-3
    Format/Info                 : Audio Coding 3
    Commercial name             : Dolby Digital
    Codec ID                    : A_AC3
    Duration                    : 47 min 32 s
    Bit rate mode               : Constant
    Bit rate                    : 640 kb/s
    Channel(s)                  : 6 channels
    Channel layout              : L R C LFE Ls Rs
    Sampling rate               : 48.0 kHz
    Frame rate                  : 31.250 FPS (1536 SPF)
    Compression mode            : Lossy
    Stream size                 : 218 MiB (8%)
    Title                       : Español Latino [CinemaniaHDD]
    Language                    : Spanish
    Service kind                : Complete Main
    Default                     : Yes
    Forced                      : Yes

    Audio #2
    ID                          : 3
    Format                      : AC-3
    Format/Info                 : Audio Coding 3
    Commercial name             : Dolby Digital
    Codec ID                    : A_AC3
    Duration                    : 47 min 32 s
    Bit rate mode               : Constant
    Bit rate                    : 640 kb/s
    Channel(s)                  : 6 channels
    Channel layout              : L R C LFE Ls Rs
    Sampling rate               : 48.0 kHz
    Frame rate                  : 31.250 FPS (1536 SPF)
    Compression mode            : Lossy
    Stream size                 : 218 MiB (8%)
    Title                       : Ingles [CinemaniaHDD]
    Language                    : English
    Service kind                : Complete Main
    Default                     : No
    Forced                      : No

    Text #1
    ID                          : 4
    Format                      : UTF-8
    Codec ID                    : S_TEXT/UTF8
    Codec ID/Info               : UTF-8 Plain Text
    Duration                    : 30 min 33 s
    Bit rate                    : 2 b/s
    Count of elements           : 14
    Stream size                 : 525 Bytes (0%)
    Title                       : Forzados-SRT [CinemaniaHDD]
    Language                    : Spanish
    Default                     : Yes
    Forced                      : Yes

    Text #2
    ID                          : 5
    Format                      : UTF-8
    Codec ID                    : S_TEXT/UTF8
    Codec ID/Info               : UTF-8 Plain Text
    Duration                    : 45 min 45 s
    Bit rate                    : 59 b/s
    Count of elements           : 631
    Stream size                 : 19.9 KiB (0%)
    Title                       : Español-SRT [CinemaniaHDD]
    Language                    : Spanish
    Default                     : No
    Forced                      : No

    Text #3
    ID                          : 6
    Format                      : PGS
    Muxing mode                 : zlib
    Codec ID                    : S_HDMV/PGS
    Codec ID/Info               : Picture based subtitle format used on BDs/HD-DVDs
    Duration                    : 46 min 12 s
    Bit rate                    : 47.1 kb/s
    Count of elements           : 1539
    Stream size                 : 15.6 MiB (1%)
    Title                       : Ingles-PGS [CinemaniaHDD]
    Language                    : English
    Default                     : No
    Forced                      : No

    Menu
    00:00:00.000                : Chapter 1
    00:04:53.835                : Chapter 2
    00:08:25.714                : Chapter 3
    00:12:46.099                : Chapter 4
    00:18:52.882                : Chapter 5
    00:21:17.776                : Chapter 6
    00:25:28.944                : Chapter 7
    00:30:08.890                : Chapter 8
    00:35:49.689                : Chapter 9
    00:38:48.493                : Chapter 10
    00:46:17.942                : Chapter 11

  • Peso: 1.8GiB - 2.5GiB Aprox C/U. | 17.8 GiB Total.

Sinopsis

Descargar Stranger Things (2016) Temporada 01 Full HD 1080p Latino. Stranger Things (originalmente titulada Montauk) es una serie de televisión dramática de misterio que está ambientada en una localidad de Indiana. Dicho lugar adquiere fama por los extraños acontecimientos que están sucediendo, similares a los del ‘Proyecto Montauk’, un supuesto proyecto secreto llevado a cabo por el gobierno de los Estados Unidos en el que se realizaban experimentos con la finalidad de desarrollar técnicas de guerra psicológica.

Argumento Primera Temporada: La historia narra la súbita desaparición de un niño en esta ciudad durante la década de los 80, hecho que destapa los extraños sucesos que tienen lugar en la zona, producto de una serie de experimentos que realiza el gobierno. Además, en la ciudad aparecen fuerzas sobrenaturales inquietantes y una niña muy perturbadora.

RESUBIDO. ACTUALIZADO CON MEJOR AUDIO!!!

Ficha técnica

Video trailer de la película

Enlaces de descarga

Rip de Bluray

Descargar Stranger Things (2016) Temporada 01 Full HD 1080p Latino




Aportes de DPeliculasHDmega la pass es:dpeliculashdmega.org Aportes de CinemaniaHD la pass es:cinemaniahdd.com

Películas relacionadas

  • Mi amigo el dragón (2016) Full HD 1080p Latino

    Mi amigo el dragón (2016) Full HD 1080p Latino

    2016
    Mi amigo el dragón (2016) Full HD 1080p Latino

    1h 43m 2016

    Descargar Mi amigo el dragón (2016) Full HD 1080p Latino. Durante años el Sr. Meacham, un viejo tallador...

    Director: Joe Nolan

    Género: Aventura

    Actores: William J. Rawbone

  • El discurso del Rey (2010) 1080p Latino

    El discurso del Rey (2010) 1080p Latino

    2010
    El discurso del Rey (2010) 1080p Latino

    1h 58m 2010

    Descargar El discurso del Rey (2010) 1080p Latino. El duque de York se convirtió en rey de Gran Bretaña...

    Director: Tom Hooper

    Género: Drama

    Actores: Tony Earnshaw

  • El discurso del Rey (2010) Full HD 1080p Latino

    El discurso del Rey (2010) Full HD 1080p Latino

    2010
    El discurso del Rey (2010) Full HD 1080p Latino

    1h 58m 2010

    Descargar El discurso del Rey (2010) Full HD 1080p Latino. El duque de York se convirtió en rey de Gran...

    Director: Tom Hooper

    Género: Drama

    Actores: Tony Earnshaw

  • El discurso del Rey (2010) REMUX 1080p Latino

    El discurso del Rey (2010) REMUX 1080p Latino

    2010
    El discurso del Rey (2010) REMUX 1080p Latino

    1h 58m 2010

    Descargar El discurso del Rey (2010) REMUX 1080p Latino. El duque de York se convirtió en rey de Gran...

    Director: Tom Hooper

    Género: Drama

    Actores: Tony Earnshaw

descargar Stranger Things (2016) Temporada 01 Full HD 1080p Latino Full 1080p 1080p gratis, Stranger Things (2016) Temporada 01 Full HD 1080p Latino Full 1080p mega 1 link, Stranger Things (2016) Temporada 01 Full HD 1080p Latino Full 1080p serie completa, descargar Stranger Things (2016) Temporada 01 Full HD 1080p Latino Full 1080p gratis en mega.

Stranger Things (2016) Temporada 01 Full HD 1080p Latino pelicula full hd, Stranger Things (2016) Temporada 01 Full HD 1080p Latino mega latino, Stranger Things (2016) Temporada 01 Full HD 1080p Latino 4k latino, Stranger Things (2016) Temporada 01 Full HD 1080p Latino pelicula completa, Stranger Things (2016) Temporada 01 Full HD 1080p Latino descargar gratis, descargar Stranger Things (2016) Temporada 01 Full HD 1080p Latino pelicula latino, Stranger Things (2016) Temporada 01 Full HD 1080p Latino 1 link mega, Stranger Things (2016) Temporada 01 Full HD 1080p Latino 1 link google drive, Stranger Things (2016) Temporada 01 Full HD 1080p Latino hd 1080p latino.
Comentarios 17
  • David - 26 diciembre, 2017

    cual es la contraseña??? no la encuentro.

    • Dpelis2 - 26 diciembre, 2017

      dpeliculashdmega.org

  • Jhefferson - 28 noviembre, 2017

    Muchas gracias descargare esta ahora mismo y luego seguire con la segunda excelente aporte como siempre en la mejor calidad 😀

  • k4roso - 24 noviembre, 2017

    PARA CUANDO LA 2da TEMPORADA??

    • Dpelis2 - 24 noviembre, 2017

      Ya esta publicada…

  • rodrigolofonte - 24 noviembre, 2017

    muchas gracias por la primer temporada, pero la fuente de video es el bluray pues creo q salio a mediados de octubre segun bluray.com o es web-dl?

    • Dpelis2 - 24 noviembre, 2017

      Es del BluRay.

  • diestermilan - 23 noviembre, 2017

    No puedo descomprimir!!!!
    Probé con ambas contraseñas.
    Ayudaaaaa!!!

    • diestermilan - 23 noviembre, 2017

      Descomprimido! Lo siento, fue un problema con el WinRar.

  • k4roso - 22 noviembre, 2017

    donde descargo todos los capítulos…. ????????????? hace tiempo hice el pedido de mama se fue de viaje y no pasa nada.. necesito cine argentino.. gracias saludos

    • dpelis - 23 noviembre, 2017

      no encontramos esa pelicula, ademas peliculas como esa muy dificil de encontrar, nos basamos mas en peliculas de otros paises

      • k4roso - 23 noviembre, 2017

        GRACIAS QUERIDO.. IGUAL TE LAS ENCARGO

  • josue joel gomez chua - 21 noviembre, 2017

    subiran la temporada 2 en portada gris ?

    • Dpelis2 - 21 noviembre, 2017

      Cuando salga el BluRay si…

  • iDeztrukxion - 19 noviembre, 2017

    excelente! así ya no tendré que pagar para verla en netflix xD

  • jose - 19 noviembre, 2017

    subirás mas series de netflix??

    • Dpelis2 pelis2 - 19 noviembre, 2017

      Esa es la idea… Saludos