×

¿Problemas para descargar con Mozilla, EDGE? Deshabilita la opción "Abrir vinculos en una pestaña nueva" tal como lo muestra ésta imagen.

Stowaway (2021) AMZN WEB-DL 1080p Latino

347 vistas

Información de Stowaway (2021) AMZN WEB-DL 1080p Latino

Datos de la película

  • Calidad: WEBDL
  • Audio: Español Latino AC3 5.1 WEB-DL - Ingles AC3 5.1 WEB-DL
  • Subtitulos: Español Latino SRT- FORZADOS SRT
  • Resolución: 1920x816
  • Formato: MKV
  • Codec: H.264
  • Encoder: cinemaniahdd
  • Mediainfo: Clic para Mostrar Datos Ver
  • Stowaway (2021) AMZN WEB-DL 1080p Latino [CNMNHDD].mkv
    Format                      : Matroska
    Format version              : Version 4
    File size                   : 5.74 GiB
    Duration                    : 1 h 56 min
    Overall bit rate            : 7 079 kb/s
    Movie name                  : Stowaway (2021) - CinemaniaHDD.Net
    Encoded date                : UTC 2021-04-23 01:03:44
    Writing application         : mkvmerge v51.0.0 ('I Wish') 64-bit
    Writing library             : libebml v1.4.0 + libmatroska v1.6.2

    Video
    ID                          : 1
    Format                      : AVC
    Format/Info                 : Advanced Video Codec
    Format profile              : High@L4
    Format settings             : CABAC / 4 Ref Frames
    Format settings, CABAC      : Yes
    Format settings, Reference  : 4 frames
    Codec ID                    : V_MPEG4/ISO/AVC
    Duration                    : 1 h 56 min
    Bit rate mode               : Constant
    Bit rate                    : 5 156 kb/s
    Nominal bit rate            : 10 000 kb/s
    Width                       : 1 920 pixels
    Height                      : 816 pixels
    Display aspect ratio        : 2.35:1
    Frame rate mode             : Constant
    Frame rate                  : 23.976 (24000/1001) FPS
    Color space                 : YUV
    Chroma subsampling          : 4:2:0
    Bit depth                   : 8 bits
    Scan type                   : Progressive
    Bits/(Pixel*Frame)          : 0.137
    Stream size                 : 4.18 GiB (73%)
    Title                       : CinemaniaHDD
    Language                    : English
    Default                     : Yes
    Forced                      : No
    Color range                 : Limited
    Color primaries             : BT.709
    Transfer characteristics    : BT.709
    Matrix coefficients         : BT.709

    Audio #1
    ID                          : 2
    Format                      : AC-3
    Format/Info                 : Audio Coding 3
    Commercial name             : Dolby Digital
    Codec ID                    : A_AC3
    Duration                    : 1 h 56 min
    Bit rate mode               : Constant
    Bit rate                    : 640 kb/s
    Channel(s)                  : 6 channels
    Channel layout              : L R C LFE Ls Rs
    Sampling rate               : 48.0 kHz
    Frame rate                  : 31.250 FPS (1536 SPF)
    Compression mode            : Lossy
    Stream size                 : 532 MiB (9%)
    Title                       : Español latino - AC3 [CinemaniaHDD]
    Language                    : Spanish
    Service kind                : Complete Main
    Default                     : Yes
    Forced                      : No

    Audio #2
    ID                          : 3
    Format                      : E-AC-3
    Format/Info                 : Enhanced AC-3
    Commercial name             : Dolby Digital Plus
    Codec ID                    : A_EAC3
    Duration                    : 1 h 56 min
    Bit rate mode               : Constant
    Bit rate                    : 640 kb/s
    Channel(s)                  : 6 channels
    Channel layout              : L R C LFE Ls Rs
    Sampling rate               : 48.0 kHz
    Frame rate                  : 31.250 FPS (1536 SPF)
    Compression mode            : Lossy
    Stream size                 : 532 MiB (9%)
    Title                       : Español latino - E-AC3 [CinemaniaHDD]
    Language                    : Spanish
    Service kind                : Complete Main
    Default                     : No
    Forced                      : No

    Audio #3
    ID                          : 4
    Format                      : E-AC-3
    Format/Info                 : Enhanced AC-3
    Commercial name             : Dolby Digital Plus
    Codec ID                    : A_EAC3
    Duration                    : 1 h 56 min
    Bit rate mode               : Constant
    Bit rate                    : 640 kb/s
    Channel(s)                  : 6 channels
    Channel layout              : L R C LFE Ls Rs
    Sampling rate               : 48.0 kHz
    Frame rate                  : 31.250 FPS (1536 SPF)
    Compression mode            : Lossy
    Stream size                 : 532 MiB (9%)
    Title                       : Inglés - E-AC3 [CinemaniaHDD]
    Language                    : English
    Service kind                : Complete Main
    Default                     : No
    Forced                      : No

    Text #1
    ID                          : 5
    Format                      : UTF-8
    Codec ID                    : S_TEXT/UTF8
    Codec ID/Info               : UTF-8 Plain Text
    Duration                    : 1 h 52 min
    Bit rate                    : 0 b/s
    Count of elements           : 10
    Stream size                 : 166 Bytes (0%)
    Title                       : Forzados [CinemaniaHDD]
    Language                    : Spanish
    Default                     : Yes
    Forced                      : Yes

    Text #2
    ID                          : 6
    Format                      : UTF-8
    Codec ID                    : S_TEXT/UTF8
    Codec ID/Info               : UTF-8 Plain Text
    Duration                    : 1 h 55 min
    Bit rate                    : 35 b/s
    Count of elements           : 989
    Stream size                 : 30.1 KiB (0%)
    Title                       : Español latino [CinemaniaHDD]
    Language                    : Spanish
    Default                     : No
    Forced                      : No

    Text #3
    ID                          : 7
    Format                      : UTF-8
    Codec ID                    : S_TEXT/UTF8
    Codec ID/Info               : UTF-8 Plain Text
    Duration                    : 1 h 46 min
    Bit rate                    : 43 b/s
    Count of elements           : 1172
    Stream size                 : 33.9 KiB (0%)
    Title                       : Inglés [CC] [CinemaniaHDD]
    Language                    : English
    Default                     : No
    Forced                      : No

     

  • Peso: 5.74 GiB

Sinopsis

Durante una misión a Marte, un polizón provoca sin querer daños graves en los sistemas de soporte vital de la nave. Ante la escasez de recursos y un final potencialmente nefasto, la tripulación debe tomar una decisión imposible

Ficha técnica

Video trailer de la película

Enlaces de descarga

Rip de Bluray

Descargar Stowaway (2021) AMZN WEB-DL 1080p Latino




Aportes de DPeliculasHDmega la pass es:dpeliculashdmega.org Aportes de CinemaniaHD la pass es:cinemaniahdd.com Aportes recientes:cinemaniahdd.net
Guardado en : Ciencia ficción , Drama , Suspenso

Películas relacionadas

  • Naturaleza Humana (2022) REMUX 1080p Latino

    Naturaleza Humana (2022) REMUX 1080p Latino

    2022
    Naturaleza Humana (2022) REMUX 1080p Latino

    1h 31m 2022

    Descargar Naturaleza Humana (2022) REMUX 1080p Latino. Una historia sobre la mayoría de edad contada...

    Director: Louie Gibson

    Género: Drama

    Actores: Tim Heidecker

  • Pobres criaturas (2023) WEB-DL 4K UHD HDR Latino

    Pobres criaturas (2023) WEB-DL 4K UHD HDR Latino

    2023
    Pobres criaturas (2023) WEB-DL 4K UHD HDR Latino

    2h 21m 2023

    Descargar Pobres criaturas (2023) WEB-DL 4K UHD HDR Latino. Bella Baxter es una joven revivida por el...

    Director: Yorgos Lanthimos

    Género: 4K HDR

    Actores: Zen Joshua Poisson

  • Pobres criaturas (2023) WEB-DL 1080p Latino

    Pobres criaturas (2023) WEB-DL 1080p Latino

    2023
    Pobres criaturas (2023) WEB-DL 1080p Latino

    2h 21m 2023

    Descargar Pobres criaturas (2023) WEB-DL 1080p Latino. Bella Baxter es una joven revivida por el brillante...

    Director: Yorgos Lanthimos

    Género: Ciencia ficción

    Actores: Zen Joshua Poisson

descargar Stowaway (2021) AMZN WEB-DL 1080p Latino WEBDL 1080p gratis, Stowaway (2021) AMZN WEB-DL 1080p Latino WEBDL mega 1 link, Stowaway (2021) AMZN WEB-DL 1080p Latino WEBDL pelicula completa, descargar Stowaway (2021) AMZN WEB-DL 1080p Latino WEBDL gratis en mega.

Stowaway (2021) AMZN WEB-DL 1080p Latino pelicula full hd, Stowaway (2021) AMZN WEB-DL 1080p Latino mega latino, Stowaway (2021) AMZN WEB-DL 1080p Latino 4k latino, Stowaway (2021) AMZN WEB-DL 1080p Latino pelicula completa, Stowaway (2021) AMZN WEB-DL 1080p Latino descargar gratis, descargar Stowaway (2021) AMZN WEB-DL 1080p Latino pelicula latino, Stowaway (2021) AMZN WEB-DL 1080p Latino 1 link mega, Stowaway (2021) AMZN WEB-DL 1080p Latino 1 link google drive, Stowaway (2021) AMZN WEB-DL 1080p Latino hd 1080p latino.
Comentarios 0