×

¿Problemas para descargar con Mozilla, EDGE? Deshabilita la opción "Abrir vinculos en una pestaña nueva" tal como lo muestra ésta imagen.

Lazos perversos (2013) REMUX 1080p Latino

197 vistas

Información de Lazos perversos (2013) REMUX 1080p Latino

Datos de la película

  • Calidad: Full 1080p
  • Audio: Español Latino AC3 5.1 BLURAY - Ingles DTS 5.1 BLURAY
  • Subtitulos: Español Latino PGS - Ingles PGS
  • Resolución: 1920x1080p
  • Formato: MKV
  • Codec: H.264
  • Encoder: CinefiloCool
  • Mediainfo: Clic para Mostrar Datos Ver
  • Lazos Perversos (2013) REMUX 1080p Latino-CMHDD.mkv
    Format                      : Matroska
    Format version              : Version 4
    File size                   : 25.9 GiB
    Duration                    : 1 h 38 min
    Overall bit rate mode       : Variable
    Overall bit rate            : 37.4 Mb/s
    Movie name                  : Stoker (2013) CinemaniaHDD.Net
    Encoded date                : UTC 2022-06-06 01:54:02
    Writing application         : mkvmerge v56.1.0 ('My Friend') 64-bit
    Writing library             : libebml v1.4.2 + libmatroska v1.6.4
    Attachments                 : CINEMANIAHD.png

    Video
    ID                          : 1
    Format                      : AVC
    Format/Info                 : Advanced Video Codec
    Format profile              : High@L4.1
    Format settings             : CABAC / 4 Ref Frames
    Format settings, CABAC      : Yes
    Format settings, Reference  : 4 frames
    Codec ID                    : V_MPEG4/ISO/AVC
    Duration                    : 1 h 38 min
    Bit rate mode               : Variable
    Bit rate                    : 33.3 Mb/s
    Maximum bit rate            : 35.5 Mb/s
    Width                       : 1 920 pixels
    Height                      : 1 080 pixels
    Display aspect ratio        : 16:9
    Frame rate mode             : Constant
    Frame rate                  : 23.976 (24000/1001) FPS
    Color space                 : YUV
    Chroma subsampling          : 4:2:0
    Bit depth                   : 8 bits
    Scan type                   : Progressive
    Bits/(Pixel*Frame)          : 0.670
    Stream size                 : 23.0 GiB (89%)
    Title                       : REMUX HD1080p [CinemaniaHDD]
    Default                     : Yes
    Forced                      : Yes

    Audio #1
    ID                          : 2
    Format                      : AC-3
    Format/Info                 : Audio Coding 3
    Commercial name             : Dolby Digital
    Codec ID                    : A_AC3
    Duration                    : 1 h 38 min
    Bit rate mode               : Constant
    Bit rate                    : 448 kb/s
    Channel(s)                  : 6 channels
    Channel layout              : L R C LFE Ls Rs
    Sampling rate               : 48.0 kHz
    Frame rate                  : 31.250 FPS (1536 SPF)
    Compression mode            : Lossy
    Stream size                 : 317 MiB (1%)
    Title                       : Español Latino [CinemaniaHDD]
    Language                    : Spanish
    Service kind                : Complete Main
    Default                     : Yes
    Forced                      : Yes

    Audio #2
    ID                          : 3
    Format                      : DTS XLL
    Format/Info                 : Digital Theater Systems
    Commercial name             : DTS-HD Master Audio
    Codec ID                    : A_DTS
    Duration                    : 1 h 38 min
    Bit rate mode               : Variable
    Bit rate                    : 3 633 kb/s
    Channel(s)                  : 6 channels
    Channel layout              : C L R Ls Rs LFE
    Sampling rate               : 48.0 kHz
    Frame rate                  : 93.750 FPS (512 SPF)
    Bit depth                   : 24 bits
    Compression mode            : Lossless
    Stream size                 : 2.51 GiB (10%)
    Title                       : Ingles [CinemaniaHDD]
    Language                    : English
    Default                     : No
    Forced                      : No

    Text #1
    ID                          : 4
    Format                      : PGS
    Muxing mode                 : zlib
    Codec ID                    : S_HDMV/PGS
    Codec ID/Info               : Picture based subtitle format used on BDs/HD-DVDs
    Duration                    : 1 h 37 min
    Bit rate                    : 18.0 kb/s
    Count of elements           : 1406
    Stream size                 : 12.6 MiB (0%)
    Title                       : Español-PGS [CinemaniaHDD]
    Language                    : Spanish
    Default                     : No
    Forced                      : No

    Text #2
    ID                          : 5
    Format                      : PGS
    Muxing mode                 : zlib
    Codec ID                    : S_HDMV/PGS
    Codec ID/Info               : Picture based subtitle format used on BDs/HD-DVDs
    Duration                    : 1 h 36 min
    Bit rate                    : 25.4 kb/s
    Count of elements           : 1858
    Stream size                 : 17.5 MiB (0%)
    Title                       : Ingles-PGS [CinemaniaHDD]
    Language                    : English
    Default                     : No
    Forced                      : No

    Text #3
    ID                          : 6
    Format                      : UTF-8
    Codec ID                    : S_TEXT/UTF8
    Codec ID/Info               : UTF-8 Plain Text
    Duration                    : 1 h 4 min
    Bit rate                    : 0 b/s
    Count of elements           : 10
    Stream size                 : 230 Bytes (0%)
    Title                       : Forzados-SRT [CinemaniaHDD]
    Language                    : Spanish
    Default                     : Yes
    Forced                      : Yes

    Text #4
    ID                          : 7
    Format                      : UTF-8
    Codec ID                    : S_TEXT/UTF8
    Codec ID/Info               : UTF-8 Plain Text
    Duration                    : 1 h 32 min
    Bit rate                    : 34 b/s
    Count of elements           : 707
    Stream size                 : 23.6 KiB (0%)
    Title                       : Español-SRT [CinemaniaHDD]
    Language                    : Spanish
    Default                     : No
    Forced                      : No

    Menu
    00:00:00.000                : Chapter 01
    00:03:48.603                : Chapter 02
    00:04:37.277                : Chapter 03
    00:07:26.863                : Chapter 04
    00:08:42.146                : Chapter 05
    00:13:28.557                : Chapter 06
    00:16:59.810                : Chapter 07
    00:19:24.955                : Chapter 08
    00:22:27.095                : Chapter 09
    00:26:50.066                : Chapter 10
    00:30:26.533                : Chapter 11
    00:34:43.289                : Chapter 12
    00:39:18.564                : Chapter 13
    00:41:47.505                : Chapter 14
    00:46:14.772                : Chapter 15
    00:49:42.729                : Chapter 16
    00:52:46.830                : Chapter 17
    00:54:50.495                : Chapter 18
    00:59:21.558                : Chapter 19
    01:02:43.050                : Chapter 20
    01:07:04.186                : Chapter 21
    01:08:38.239                : Chapter 22
    01:15:24.895                : Chapter 23
    01:18:14.773                : Chapter 24
    01:22:11.927                : Chapter 25
    01:26:22.510                : Chapter 26
    01:31:17.472                : Chapter 27
    01:34:38.214                : Chapter 28

  • Peso: 25.9 GiB

Sinopsis

Descargar Lazos perversos (2013) REMUX 1080p Latino. Cuando India Stoker (Mia Wasikowska), una adolescente algo excéntrica, pierde a su querido padre (Dermot Mulroney) en un trágico accidente de coche en el día de su 18 cumpleaños, su tranquila existencia en la apartada mansión familiar se hace añicos de golpe. Con una sensibilidad exquisita, India muestra un comportamiento impasible que enmascara los profundos sentimientos y los agudísimos sentidos que sólo su padre comprendía. India se ve arrastrada hacia el hermano perdido de su padre, Charlie (Matthew Goode), que aparece por sorpresa en el funeral y decide quedarse con ella y su inestable madre, Evie (Nicole Kidman). Aunque India al principio desconfía de su encantador y misterioso tío, pronto descubre que le fascina y se da cuenta de cuánto tienen en común… Debut en EEUU del director coreano Park Chan-wook (Old Boy).

Disponible Solo Para VIP!!!

Ficha técnica

Video trailer de la película

Enlaces de descarga

Rip de Bluray

Descargar Lazos perversos (2013) REMUX 1080p Latino


Aportes de DPeliculasHDmega la pass es:dpeliculashdmega.org Aportes de CinemaniaHD la pass es:cinemaniahdd.com
Guardado en : Drama , Remux , Suspenso , Terror

Películas relacionadas

  • Blonde (2022) NF WEB-DL 1080p Latino

    Blonde (2022) NF WEB-DL 1080p Latino

    2022
    Blonde (2022) NF WEB-DL 1080p Latino

    2h 46m 2022

    Descargar Blonde (2022) NF WEB-DL 1080p Latino. Basada en el bestseller de la cinco veces finalista al...

    Director: Kristin Bree Calabrese

    Género: Drama

    Actores: Xavier Samuel

  • La Máquina infernal (2022) WEB-DL 1080p Latino

    La Máquina infernal (2022) WEB-DL 1080p Latino

    2022
    La Máquina infernal (2022) WEB-DL 1080p Latino

    1h 47m 2022

    Descargar La Máquina infernal (2022) WEB-DL 1080p Latino. Un fan obsesivo saca de su escondite al solitario...

    Director: Andrew Hunt

    Género: Suspenso

    Actores: Rocco Salata

  • Borrego: Sal Del Camino (2022) HD 1080p Latino

    Borrego: Sal Del Camino (2022) HD 1080p Latino

    2022
    Borrego: Sal Del Camino (2022) HD 1080p Latino

    1h 42m 2022

    Descargar Borrego: Sal Del Camino (2022) HD 1080p Latino. Una joven botánica se traslada a un pequeño...

    Director: Jesse Harris

    Género: Crimen

    Actores: Olivia Trujillo

  • Borrego: Sal Del Camino (2022) REMUX 1080p Latino

    Borrego: Sal Del Camino (2022) REMUX 1080p Latino

    2022
    Borrego: Sal Del Camino (2022) REMUX 1080p Latino

    1h 42m 2022

    Descargar Borrego: Sal Del Camino (2022) REMUX 1080p Latino. Una joven botánica se traslada a un pequeño...

    Director: Jesse Harris

    Género: Crimen

    Actores: Olivia Trujillo

descargar Lazos perversos (2013) REMUX 1080p Latino Full 1080p 1080p gratis, Lazos perversos (2013) REMUX 1080p Latino Full 1080p mega 1 link, Lazos perversos (2013) REMUX 1080p Latino Full 1080p pelicula completa, descargar Lazos perversos (2013) REMUX 1080p Latino Full 1080p gratis en mega.

Lazos perversos (2013) REMUX 1080p Latino pelicula full hd, Lazos perversos (2013) REMUX 1080p Latino mega latino, Lazos perversos (2013) REMUX 1080p Latino 4k latino, Lazos perversos (2013) REMUX 1080p Latino pelicula completa, Lazos perversos (2013) REMUX 1080p Latino descargar gratis, descargar Lazos perversos (2013) REMUX 1080p Latino pelicula latino, Lazos perversos (2013) REMUX 1080p Latino 1 link mega, Lazos perversos (2013) REMUX 1080p Latino 1 link google drive, Lazos perversos (2013) REMUX 1080p Latino hd 1080p latino.
Comentarios 0