×

¿Problemas para descargar con Mozilla, EDGE? Deshabilita la opción "Abrir vinculos en una pestaña nueva" tal como lo muestra ésta imagen.

Step Up Revolution (2012) REMUX 1080p Latino – CMHDD

232 vistas

Información de Step Up Revolution (2012) REMUX 1080p Latino – CMHDD

Datos de la película

  • Calidad: Full 1080p
  • Audio: Español Latino AC3 5.1 BLURAY - Ingles DTS-HD Master 7.1 BLURAY
  • Subtitulos: Español Latino PGS
  • Resolución: 1920x1080p
  • Formato: MKV
  • Codec: H.264
  • Encoder: Dracarys
  • Mediainfo: Clic para Mostrar Datos Ver
  • Format                      : Matroska
    Format version              : Version 4
    File size                   : 23.0 GiB
    Duration                    : 1 h 38 min
    Overall bit rate mode       : Variable
    Overall bit rate            : 33.4 Mb/s
    Movie name                  : Step Up Revolution (2012) REMUX 1080p Latino
    Encoded date                : UTC 2021-01-12 04:18:06
    Writing application         : mkvmerge v51.0.0 ('I Wish') 64-bit
    Writing library             : libebml v1.4.0 + libmatroska v1.6.2

    Video
    ID                          : 1
    Format                      : AVC
    Format/Info                 : Advanced Video Codec
    Format profile              : High@L4.1
    Format settings             : CABAC / 3 Ref Frames
    Format settings, CABAC      : Yes
    Format settings, Reference  : 3 frames
    Codec ID                    : V_MPEG4/ISO/AVC
    Duration                    : 1 h 38 min
    Bit rate mode               : Variable
    Bit rate                    : 25.9 Mb/s
    Maximum bit rate            : 32.0 Mb/s
    Width                       : 1 920 pixels
    Height                      : 1 080 pixels
    Display aspect ratio        : 16:9
    Frame rate mode             : Constant
    Frame rate                  : 23.976 (24000/1001) FPS
    Color space                 : YUV
    Chroma subsampling          : 4:2:0
    Bit depth                   : 8 bits
    Scan type                   : Progressive
    Bits/(Pixel*Frame)          : 0.521
    Stream size                 : 17.8 GiB (77%)
    Language                    : English
    Default                     : No
    Forced                      : No

    Audio #1
    ID                          : 2
    Format                      : AC-3
    Format/Info                 : Audio Coding 3
    Commercial name             : Dolby Digital
    Codec ID                    : A_AC3
    Duration                    : 1 h 38 min
    Bit rate mode               : Constant
    Bit rate                    : 640 kb/s
    Channel(s)                  : 6 channels
    Channel layout              : L R C LFE Ls Rs
    Sampling rate               : 48.0 kHz
    Frame rate                  : 31.250 FPS (1536 SPF)
    Compression mode            : Lossy
    Stream size                 : 452 MiB (2%)
    Language                    : Spanish
    Service kind                : Complete Main
    Default                     : Yes
    Forced                      : No

    Audio #2
    ID                          : 3
    Format                      : DTS XLL
    Format/Info                 : Digital Theater Systems
    Commercial name             : DTS-HD Master Audio
    Codec ID                    : A_DTS
    Duration                    : 1 h 38 min
    Bit rate mode               : Variable
    Bit rate                    : 5 358 kb/s
    Channel(s)                  : 8 channels
    Channel layout              : C L R LFE Lb Rb Lss Rss
    Sampling rate               : 48.0 kHz
    Frame rate                  : 93.750 FPS (512 SPF)
    Bit depth                   : 24 bits
    Compression mode            : Lossless
    Stream size                 : 3.69 GiB (16%)
    Language                    : English
    Default                     : No
    Forced                      : No

    Audio #3
    ID                          : 4
    Format                      : DTS
    Format/Info                 : Digital Theater Systems
    Codec ID                    : A_DTS
    Duration                    : 1 h 38 min
    Bit rate mode               : Constant
    Bit rate                    : 1 509 kb/s
    Channel(s)                  : 6 channels
    Channel layout              : C L R Ls Rs LFE
    Sampling rate               : 48.0 kHz
    Frame rate                  : 93.750 FPS (512 SPF)
    Bit depth                   : 24 bits
    Compression mode            : Lossy
    Stream size                 : 1.04 GiB (5%)
    Language                    : English
    Default                     : No
    Forced                      : No

    Text
    ID                          : 5
    Format                      : PGS
    Muxing mode                 : zlib
    Codec ID                    : S_HDMV/PGS
    Codec ID/Info               : Picture based subtitle format used on BDs/HD-DVDs
    Duration                    : 1 h 33 min
    Bit rate                    : 26.5 kb/s
    Count of elements           : 1835
    Stream size                 : 17.7 MiB (0%)
    Language                    : Spanish
    Default                     : No
    Forced                      : No

    Menu
    00:00:00.000                : en:Chapter 01
    00:05:36.836                : en:Chapter 02
    00:07:25.236                : en:Chapter 03
    00:11:46.914                : en:Chapter 04
    00:14:00.464                : en:Chapter 05
    00:16:54.513                : en:Chapter 06
    00:20:22.679                : en:Chapter 07
    00:23:16.228                : en:Chapter 08
    00:27:37.989                : en:Chapter 09
    00:32:30.323                : en:Chapter 10
    00:36:58.382                : en:Chapter 11
    00:39:49.387                : en:Chapter 12
    00:42:43.477                : en:Chapter 13
    00:45:50.080                : en:Chapter 14
    00:49:37.140                : en:Chapter 15
    00:56:35.642                : en:Chapter 16
    00:58:43.978                : en:Chapter 17
    01:02:47.096                : en:Chapter 18
    01:07:05.938                : en:Chapter 19
    01:11:52.391                : en:Chapter 20
    01:15:35.072                : en:Chapter 21
    01:17:22.846                : en:Chapter 22
    01:26:01.865                : en:Chapter 23
    01:31:32.195                : en:Chapter 24
     

  • Peso: 23.0 GiB

Sinopsis

La historia se centra en una joven «niña de papá», que se enamora del líder de un grupo de baile que organiza flashmobs por amor al arte. Cuando el padre de ésta quiere demoler el barrio donde viven los bailarines, la chica insta sus compañeros de baile a que utilicen los flashmobs para reivindicar. Nueva entrega de la saga Step Up.

Ficha técnica

  • Titulo original: Step Up Revolution
  • Fecha de lanzamiento: 26-07-2012 (United States of America)
  • Director: Scott Speer
  • Género: Drama, Música, Romance

Video trailer de la película

Enlaces de descarga

Rip de Bluray

Descargar Step Up Revolution (2012) REMUX 1080p Latino – CMHDD


Aportes de DPeliculasHDmega la pass es:dpeliculashdmega.org Aportes de CinemaniaHD la pass es:cinemaniahdd.com
Guardado en : Drama , Música , Romance

Películas relacionadas

  • Paradise Highway (2022) HD 1080p Latino

    Paradise Highway (2022) HD 1080p Latino

    2022
    Paradise Highway (2022) HD 1080p Latino

    1h 55m 2022

    Descargar Paradise Highway (2022) HD 1080p Latino. Un camionero se ha visto obligado a pasar de contrabando...

    Director: Anna Gutto

    Género: Crimen

    Actores: Xavier Scott Evans

  • Paradise Highway (2022) PLACEBO Full HD 1080p Latino

    Paradise Highway (2022) PLACEBO Full HD 1080p Latino

    2022
    Paradise Highway (2022) PLACEBO Full HD 1080p Latino

    1h 55m 2022

    Descargar Paradise Highway (2022) PLACEBO Full HD 1080p Latino. Un camionero se ha visto obligado a pasar...

    Director: Anna Gutto

    Género: Crimen

    Actores: Xavier Scott Evans

  • Paradise Highway (2022) REMUX 1080p Latino

    Paradise Highway (2022) REMUX 1080p Latino

    2022
    Paradise Highway (2022) REMUX 1080p Latino

    1h 55m 2022

    Descargar Paradise Highway (2022) REMUX 1080p Latino. Un camionero se ha visto obligado a pasar de contrabando...

    Director: Anna Gutto

    Género: Crimen

    Actores: Xavier Scott Evans

  • Narvik (2022) NF WEB-DL 1080p Latino

    Narvik (2022) NF WEB-DL 1080p Latino

    2022
    Narvik (2022) NF WEB-DL 1080p Latino

    1h 48m 2022

    Descargar Narvik (2022) NF WEB-DL 1080p Latino. Abril de 1940. Los ojos del mundo están puestos en Narvik,...

    Director: Suzanne Svae-Johansen

    Género: Acción

    Actores: Torfinn Nag

descargar Step Up Revolution (2012) REMUX 1080p Latino – CMHDD Full 1080p 1080p gratis, Step Up Revolution (2012) REMUX 1080p Latino – CMHDD Full 1080p mega 1 link, Step Up Revolution (2012) REMUX 1080p Latino – CMHDD Full 1080p pelicula completa, descargar Step Up Revolution (2012) REMUX 1080p Latino – CMHDD Full 1080p gratis en mega.

Step Up Revolution (2012) REMUX 1080p Latino – CMHDD pelicula full hd, Step Up Revolution (2012) REMUX 1080p Latino – CMHDD mega latino, Step Up Revolution (2012) REMUX 1080p Latino – CMHDD 4k latino, Step Up Revolution (2012) REMUX 1080p Latino – CMHDD pelicula completa, Step Up Revolution (2012) REMUX 1080p Latino – CMHDD descargar gratis, descargar Step Up Revolution (2012) REMUX 1080p Latino – CMHDD pelicula latino, Step Up Revolution (2012) REMUX 1080p Latino – CMHDD 1 link mega, Step Up Revolution (2012) REMUX 1080p Latino – CMHDD 1 link google drive, Step Up Revolution (2012) REMUX 1080p Latino – CMHDD hd 1080p latino.
Comentarios 0