×

¿Problemas para descargar con Mozilla, EDGE? Deshabilita la opción "Abrir vinculos en una pestaña nueva" tal como lo muestra ésta imagen.

Step Up All In (2014) REMUX 1080p Latino – CMHDD

221 vistas

Información de Step Up All In (2014) REMUX 1080p Latino – CMHDD

Datos de la película

  • Calidad: Full 1080p
  • Audio: Español Latino AC3 5.1 BLURAY - Ingles AC3 5.1 BLURAY
  • Subtitulos: Español Latino PGS
  • Resolución: 1920x1080p
  • Formato: MKV
  • Codec: H.264
  • Encoder: Dracarys
  • Mediainfo: Clic para Mostrar Datos Ver
  • Format                      : Matroska
    Format version              : Version 4
    File size                   : 27.7 GiB
    Duration                    : 1 h 51 min
    Overall bit rate mode       : Variable
    Overall bit rate            : 35.5 Mb/s
    Movie name                  : Step Up All In (2014) REMUX 1080p Latino
    Encoded date                : UTC 2021-01-12 04:21:57
    Writing application         : mkvmerge v51.0.0 ('I Wish') 64-bit
    Writing library             : libebml v1.4.0 + libmatroska v1.6.2

    Video
    ID                          : 1
    Format                      : AVC
    Format/Info                 : Advanced Video Codec
    Format profile              : High@L4.1
    Format settings             : CABAC / 4 Ref Frames
    Format settings, CABAC      : Yes
    Format settings, Reference  : 4 frames
    Codec ID                    : V_MPEG4/ISO/AVC
    Duration                    : 1 h 51 min
    Bit rate mode               : Variable
    Bit rate                    : 28.9 Mb/s
    Maximum bit rate            : 35.0 Mb/s
    Width                       : 1 920 pixels
    Height                      : 1 080 pixels
    Display aspect ratio        : 16:9
    Frame rate mode             : Constant
    Frame rate                  : 23.976 (24000/1001) FPS
    Color space                 : YUV
    Chroma subsampling          : 4:2:0
    Bit depth                   : 8 bits
    Scan type                   : Progressive
    Bits/(Pixel*Frame)          : 0.581
    Stream size                 : 22.6 GiB (81%)
    Language                    : English
    Default                     : No
    Forced                      : No

    Audio #1
    ID                          : 2
    Format                      : AC-3
    Format/Info                 : Audio Coding 3
    Commercial name             : Dolby Digital
    Codec ID                    : A_AC3
    Duration                    : 1 h 51 min
    Bit rate mode               : Constant
    Bit rate                    : 640 kb/s
    Channel(s)                  : 6 channels
    Channel layout              : L R C LFE Ls Rs
    Sampling rate               : 48.0 kHz
    Frame rate                  : 31.250 FPS (1536 SPF)
    Compression mode            : Lossy
    Stream size                 : 512 MiB (2%)
    Language                    : Spanish
    Service kind                : Complete Main
    Default                     : Yes
    Forced                      : No

    Audio #2
    ID                          : 3
    Format                      : MLP FBA 16-ch
    Format/Info                 : Meridian Lossless Packing FBA with 16-channel presentation
    Commercial name             : Dolby TrueHD with Dolby Atmos
    Codec ID                    : A_TRUEHD
    Duration                    : 1 h 51 min
    Bit rate mode               : Variable
    Bit rate                    : 5 283 kb/s
    Maximum bit rate            : 9 555 kb/s
    Channel(s)                  : 8 channels
    Channel layout              : L R C LFE Ls Rs Lb Rb
    Sampling rate               : 48.0 kHz
    Frame rate                  : 1 200.000 FPS (40 SPF)
    Compression mode            : Lossless
    Stream size                 : 4.13 GiB (15%)
    Language                    : English
    Default                     : No
    Forced                      : No
    Number of dynamic objects   : 11
    Bed channel count           : 1 channel
    Bed channel configuration   : LFE

    Audio #3
    ID                          : 4
    Format                      : AC-3
    Format/Info                 : Audio Coding 3
    Commercial name             : Dolby Digital
    Codec ID                    : A_AC3
    Duration                    : 1 h 51 min
    Bit rate mode               : Constant
    Bit rate                    : 640 kb/s
    Channel(s)                  : 6 channels
    Channel layout              : L R C LFE Ls Rs
    Sampling rate               : 48.0 kHz
    Frame rate                  : 31.250 FPS (1536 SPF)
    Compression mode            : Lossy
    Stream size                 : 512 MiB (2%)
    Language                    : English
    Service kind                : Complete Main
    Default                     : No
    Forced                      : No

    Text
    ID                          : 5
    Format                      : PGS
    Muxing mode                 : zlib
    Codec ID                    : S_HDMV/PGS
    Codec ID/Info               : Picture based subtitle format used on BDs/HD-DVDs
    Duration                    : 1 h 48 min
    Bit rate                    : 30.6 kb/s
    Count of elements           : 2516
    Stream size                 : 23.8 MiB (0%)
    Language                    : Spanish
    Default                     : No
    Forced                      : No

    Menu
    00:00:00.000                : en:Chapter 01
    00:05:40.298                : en:Chapter 02
    00:12:12.690                : en:Chapter 03
    00:19:04.977                : en:Chapter 04
    00:26:09.693                : en:Chapter 05
    00:32:55.848                : en:Chapter 06
    00:39:16.812                : en:Chapter 07
    00:46:30.287                : en:Chapter 08
    00:55:57.520                : en:Chapter 09
    01:03:04.197                : en:Chapter 10
    01:07:06.188                : en:Chapter 11
    01:14:23.000                : en:Chapter 12
    01:22:08.298                : en:Chapter 13
    01:29:23.399                : en:Chapter 14
    01:35:56.375                : en:Chapter 15
    01:43:34.082                : en:Chapter 16

  • Peso: 27.7 GiB

Sinopsis

Sean Asa, bailarín callejero en Miami, se traslada a Hollywood en busca de fama y fortuna, sólo para descubrir que es casi imposible triunfar en el mundo del baile profesional. Pero, cuando el nuevo equipo de baile que forma con la hermosa y testaruda Andie West llega a las últimas rondas de un concurso televisivo de baile en la fastuosa ciudad de Las Vegas, tiene una oportunidad de hacer realidad por fin sus sueños. Para ello necesita dejar de lado viejas lealtades y antiguas rivalidades, y limitarse a hacer lo que más le apasiona: bailar.

Ficha técnica

  • Titulo original: Step Up All In
  • Fecha de lanzamiento: 16-07-2014 (United States of America)
  • Director: Trish Sie
  • Género: Drama, Música, Romance

Video trailer de la película

Enlaces de descarga

Rip de Bluray

Descargar Step Up All In (2014) REMUX 1080p Latino – CMHDD


Aportes de DPeliculasHDmega la pass es:dpeliculashdmega.org Aportes de CinemaniaHD la pass es:cinemaniahdd.com
Guardado en : Drama , Música , Romance

Películas relacionadas

descargar Step Up All In (2014) REMUX 1080p Latino – CMHDD Full 1080p 1080p gratis, Step Up All In (2014) REMUX 1080p Latino – CMHDD Full 1080p mega 1 link, Step Up All In (2014) REMUX 1080p Latino – CMHDD Full 1080p pelicula completa, descargar Step Up All In (2014) REMUX 1080p Latino – CMHDD Full 1080p gratis en mega.

Step Up All In (2014) REMUX 1080p Latino – CMHDD pelicula full hd, Step Up All In (2014) REMUX 1080p Latino – CMHDD mega latino, Step Up All In (2014) REMUX 1080p Latino – CMHDD 4k latino, Step Up All In (2014) REMUX 1080p Latino – CMHDD pelicula completa, Step Up All In (2014) REMUX 1080p Latino – CMHDD descargar gratis, descargar Step Up All In (2014) REMUX 1080p Latino – CMHDD pelicula latino, Step Up All In (2014) REMUX 1080p Latino – CMHDD 1 link mega, Step Up All In (2014) REMUX 1080p Latino – CMHDD 1 link google drive, Step Up All In (2014) REMUX 1080p Latino – CMHDD hd 1080p latino.
Comentarios 0