×

¿Problemas para descargar con Mozilla, EDGE? Deshabilita la opción "Abrir vinculos en una pestaña nueva" tal como lo muestra ésta imagen.

Step Up 3D (2010) REMUX 1080p Latino – CMHDD

253 vistas

Información de Step Up 3D (2010) REMUX 1080p Latino – CMHDD

Datos de la película

  • Calidad: Full 1080p
  • Audio: Español Latino AC3 5.1 BLURAY - Ingles DTS-HD Master 7.1 BLURAY
  • Subtitulos: Español Latino PGS
  • Resolución: 1920x1080p
  • Formato: MKV
  • Codec: H.264
  • Encoder: Dracarys
  • Mediainfo: Clic para Mostrar Datos Ver
  • Format                      : Matroska
    Format version              : Version 4
    File size                   : 28.3 GiB
    Duration                    : 1 h 46 min
    Overall bit rate mode       : Variable
    Overall bit rate            : 37.8 Mb/s
    Movie name                  : Step Up 3D (2010) REMUX 1080p Latino
    Encoded date                : UTC 2021-01-12 04:14:48
    Writing application         : mkvmerge v51.0.0 ('I Wish') 64-bit
    Writing library             : libebml v1.4.0 + libmatroska v1.6.2

    Video
    ID                          : 1
    Format                      : AVC
    Format/Info                 : Advanced Video Codec
    Format profile              : High@L4.1
    Format settings             : CABAC / 4 Ref Frames
    Format settings, CABAC      : Yes
    Format settings, Reference  : 4 frames
    Codec ID                    : V_MPEG4/ISO/AVC
    Duration                    : 1 h 46 min
    Bit rate mode               : Variable
    Bit rate                    : 30.0 Mb/s
    Maximum bit rate            : 36.0 Mb/s
    Width                       : 1 920 pixels
    Height                      : 1 080 pixels
    Display aspect ratio        : 16:9
    Frame rate mode             : Constant
    Frame rate                  : 23.976 (24000/1001) FPS
    Color space                 : YUV
    Chroma subsampling          : 4:2:0
    Bit depth                   : 8 bits
    Scan type                   : Progressive
    Bits/(Pixel*Frame)          : 0.604
    Stream size                 : 22.4 GiB (79%)
    Language                    : English
    Default                     : No
    Forced                      : No
    Color range                 : Limited
    Color primaries             : BT.709
    Transfer characteristics    : BT.709
    Matrix coefficients         : BT.709

    Audio #1
    ID                          : 2
    Format                      : AC-3
    Format/Info                 : Audio Coding 3
    Commercial name             : Dolby Digital
    Codec ID                    : A_AC3
    Duration                    : 1 h 46 min
    Bit rate mode               : Constant
    Bit rate                    : 640 kb/s
    Channel(s)                  : 6 channels
    Channel layout              : L R C LFE Ls Rs
    Sampling rate               : 48.0 kHz
    Frame rate                  : 31.250 FPS (1536 SPF)
    Compression mode            : Lossy
    Stream size                 : 490 MiB (2%)
    Language                    : Spanish
    Service kind                : Complete Main
    Default                     : Yes
    Forced                      : No

    Audio #2
    ID                          : 3
    Format                      : DTS XLL
    Format/Info                 : Digital Theater Systems
    Commercial name             : DTS-HD Master Audio
    Codec ID                    : A_DTS
    Duration                    : 1 h 46 min
    Bit rate mode               : Variable
    Bit rate                    : 5 648 kb/s
    Channel(s)                  : 8 channels
    Channel layout              : C L R LFE Lb Rb Lss Rss
    Sampling rate               : 48.0 kHz
    Frame rate                  : 93.750 FPS (512 SPF)
    Bit depth                   : 24 bits
    Compression mode            : Lossless
    Stream size                 : 4.22 GiB (15%)
    Language                    : English
    Default                     : No
    Forced                      : No

    Audio #3
    ID                          : 4
    Format                      : DTS
    Format/Info                 : Digital Theater Systems
    Codec ID                    : A_DTS
    Duration                    : 1 h 46 min
    Bit rate mode               : Constant
    Bit rate                    : 1 509 kb/s
    Channel(s)                  : 6 channels
    Channel layout              : C L R Ls Rs LFE
    Sampling rate               : 48.0 kHz
    Frame rate                  : 93.750 FPS (512 SPF)
    Bit depth                   : 24 bits
    Compression mode            : Lossy
    Stream size                 : 1.13 GiB (4%)
    Language                    : English
    Default                     : No
    Forced                      : No

    Text #1
    ID                          : 5
    Format                      : PGS
    Muxing mode                 : zlib
    Codec ID                    : S_HDMV/PGS
    Codec ID/Info               : Picture based subtitle format used on BDs/HD-DVDs
    Duration                    : 1 h 38 min
    Bit rate                    : 29.4 kb/s
    Count of elements           : 2234
    Stream size                 : 20.8 MiB (0%)
    Language                    : Spanish
    Default                     : No
    Forced                      : No

    Text #2
    ID                          : 6
    Format                      : PGS
    Muxing mode                 : zlib
    Codec ID                    : S_HDMV/PGS
    Codec ID/Info               : Picture based subtitle format used on BDs/HD-DVDs
    Duration                    : 1 h 28 min
    Bit rate                    : 921 b/s
    Count of elements           : 50
    Stream size                 : 598 KiB (0%)
    Language                    : Spanish
    Default                     : No
    Forced                      : No

    Menu
    00:00:00.000                : en:Chapter 01
    00:02:26.855                : en:Chapter 02
    00:07:02.505                : en:Chapter 03
    00:12:59.153                : en:Chapter 04
    00:18:40.828                : en:Chapter 05
    00:27:40.408                : en:Chapter 06
    00:32:13.097                : en:Chapter 07
    00:36:47.079                : en:Chapter 08
    00:42:01.435                : en:Chapter 09
    00:45:21.677                : en:Chapter 10
    00:48:59.061                : en:Chapter 11
    00:53:06.808                : en:Chapter 12
    00:55:43.340                : en:Chapter 13
    00:56:52.242                : en:Chapter 14
    01:05:11.073                : en:Chapter 15
    01:14:37.890                : en:Chapter 16
    01:21:22.836                : en:Chapter 17
    01:34:51.185                : en:Chapter 18

  • Peso: 28.3 GiB

Sinopsis

El intenso baile callejero del metro de Nueva York cobra vida en 3D en la tercera entrega de la franquicia Step Up (2006), cuando la cruda y apasionada cultura se globaliza. Un cerrado grupo de bailarines callejeros, que incluye a Luke y a Natalie, se reúne con el novato Moose y juntos terminan enfrentados a los mejores bailarines de breakdance del mundo en una confrontación final que cambiará sus vidas para siempre.

Ficha técnica

  • Titulo original: Step Up 3D
  • Fecha de lanzamiento: 04-08-2010 (United States of America)
  • Director: Jon M. Chu
  • Género: Drama, Romance

Video trailer de la película

Enlaces de descarga

Rip de Bluray

Descargar Step Up 3D (2010) REMUX 1080p Latino – CMHDD


Aportes de DPeliculasHDmega la pass es:dpeliculashdmega.org Aportes de CinemaniaHD la pass es:cinemaniahdd.com
Guardado en : Drama , Romance

Películas relacionadas

descargar Step Up 3D (2010) REMUX 1080p Latino – CMHDD Full 1080p 1080p gratis, Step Up 3D (2010) REMUX 1080p Latino – CMHDD Full 1080p mega 1 link, Step Up 3D (2010) REMUX 1080p Latino – CMHDD Full 1080p pelicula completa, descargar Step Up 3D (2010) REMUX 1080p Latino – CMHDD Full 1080p gratis en mega.

Step Up 3D (2010) REMUX 1080p Latino – CMHDD pelicula full hd, Step Up 3D (2010) REMUX 1080p Latino – CMHDD mega latino, Step Up 3D (2010) REMUX 1080p Latino – CMHDD 4k latino, Step Up 3D (2010) REMUX 1080p Latino – CMHDD pelicula completa, Step Up 3D (2010) REMUX 1080p Latino – CMHDD descargar gratis, descargar Step Up 3D (2010) REMUX 1080p Latino – CMHDD pelicula latino, Step Up 3D (2010) REMUX 1080p Latino – CMHDD 1 link mega, Step Up 3D (2010) REMUX 1080p Latino – CMHDD 1 link google drive, Step Up 3D (2010) REMUX 1080p Latino – CMHDD hd 1080p latino.
Comentarios 0