×

¿Problemas para descargar con Mozilla, EDGE? Deshabilita la opción "Abrir vinculos en una pestaña nueva" tal como lo muestra ésta imagen.

Step Up (2006) REMUX 1080p Latino – CMHDD

255 vistas

Información de Step Up (2006) REMUX 1080p Latino – CMHDD

Datos de la película

  • Calidad: Full 1080p
  • Audio: Español Latino AC3 5.1 BLURAY - Ingles DTS 5.1 BLURAY
  • Subtitulos: Español Latino PGS
  • Resolución: 1920x1080p
  • Formato: MKV
  • Codec: H.264
  • Encoder: Dracarys
  • Mediainfo: Clic para Mostrar Datos Ver
  • Format                      : Matroska
    Format version              : Version 4
    File size                   : 23.2 GiB
    Duration                    : 1 h 43 min
    Overall bit rate mode       : Variable
    Overall bit rate            : 32.0 Mb/s
    Movie name                  : Step Up (2006) REMUX 1080p Latino
    Encoded date                : UTC 2021-01-12 03:55:52
    Writing application         : mkvmerge v51.0.0 ('I Wish') 64-bit
    Writing library             : libebml v1.4.0 + libmatroska v1.6.2

    Video
    ID                          : 1
    Format                      : AVC
    Format/Info                 : Advanced Video Codec
    Format profile              : High@L4.1
    Format settings             : CABAC / 4 Ref Frames
    Format settings, CABAC      : Yes
    Format settings, Reference  : 4 frames
    Codec ID                    : V_MPEG4/ISO/AVC
    Duration                    : 1 h 43 min
    Bit rate mode               : Variable
    Bit rate                    : 25.8 Mb/s
    Maximum bit rate            : 34.0 Mb/s
    Width                       : 1 920 pixels
    Height                      : 1 080 pixels
    Display aspect ratio        : 16:9
    Frame rate mode             : Constant
    Frame rate                  : 23.976 (24000/1001) FPS
    Color space                 : YUV
    Chroma subsampling          : 4:2:0
    Bit depth                   : 8 bits
    Scan type                   : Progressive
    Bits/(Pixel*Frame)          : 0.519
    Stream size                 : 18.7 GiB (81%)
    Default                     : Yes
    Forced                      : No

    Audio #1
    ID                          : 2
    Format                      : AC-3
    Format/Info                 : Audio Coding 3
    Commercial name             : Dolby Digital
    Codec ID                    : A_AC3
    Duration                    : 1 h 43 min
    Bit rate mode               : Constant
    Bit rate                    : 640 kb/s
    Channel(s)                  : 6 channels
    Channel layout              : L R C LFE Ls Rs
    Sampling rate               : 48.0 kHz
    Frame rate                  : 31.250 FPS (1536 SPF)
    Compression mode            : Lossy
    Stream size                 : 474 MiB (2%)
    Language                    : Spanish
    Service kind                : Complete Main
    Default                     : Yes
    Forced                      : No

    Audio #2
    ID                          : 3
    Format                      : DTS XLL
    Format/Info                 : Digital Theater Systems
    Commercial name             : DTS-HD Master Audio
    Codec ID                    : A_DTS
    Duration                    : 1 h 43 min
    Bit rate mode               : Variable
    Bit rate                    : 4 032 kb/s
    Channel(s)                  : 6 channels
    Channel layout              : C L R Ls Rs LFE
    Sampling rate               : 48.0 kHz
    Frame rate                  : 93.750 FPS (512 SPF)
    Bit depth                   : 24 bits
    Compression mode            : Lossless
    Stream size                 : 2.92 GiB (13%)
    Language                    : English
    Default                     : No
    Forced                      : No

    Audio #3
    ID                          : 4
    Format                      : DTS
    Format/Info                 : Digital Theater Systems
    Codec ID                    : A_DTS
    Duration                    : 1 h 43 min
    Bit rate mode               : Constant
    Bit rate                    : 1 509 kb/s
    Channel(s)                  : 6 channels
    Channel layout              : C L R Ls Rs LFE
    Sampling rate               : 48.0 kHz
    Frame rate                  : 93.750 FPS (512 SPF)
    Bit depth                   : 24 bits
    Compression mode            : Lossy
    Stream size                 : 1.09 GiB (5%)
    Language                    : English
    Default                     : No
    Forced                      : No

    Text
    ID                          : 5
    Format                      : PGS
    Muxing mode                 : zlib
    Codec ID                    : S_HDMV/PGS
    Codec ID/Info               : Picture based subtitle format used on BDs/HD-DVDs
    Duration                    : 1 h 36 min
    Bit rate                    : 33.4 kb/s
    Count of elements           : 2126
    Stream size                 : 23.0 MiB (0%)
    Language                    : Spanish
    Default                     : No
    Forced                      : No
     

  • Peso: 23.2 GiB

Sinopsis

Tyler Gage (Channing Tatum) ha crecido y pasado toda su vida en los barrios más peligrosos de la ciudad de Baltimore y sabe que es poco probable que alguna vez salga de ahí. Un día, tras un roce con la ley, Tyler es sentenciado a realizar un servicio comunitario en la Escuela de Artes de Maryland. Allí conoce a Nora (Jenna Dewan), una atractiva bailarina que está buscando desesperadamente a alguien que sustituya a su compañero, de baja por accidente, antes de la importantísima Exhibición Senior de la escuela.

Ficha técnica

Video trailer de la película

Enlaces de descarga

Rip de Bluray

Descargar Step Up (2006) REMUX 1080p Latino – CMHDD


Aportes de DPeliculasHDmega la pass es:dpeliculashdmega.org Aportes de CinemaniaHD la pass es:cinemaniahdd.com
Guardado en : Crimen , Drama , Música , Romance

Películas relacionadas

descargar Step Up (2006) REMUX 1080p Latino – CMHDD Full 1080p 1080p gratis, Step Up (2006) REMUX 1080p Latino – CMHDD Full 1080p mega 1 link, Step Up (2006) REMUX 1080p Latino – CMHDD Full 1080p pelicula completa, descargar Step Up (2006) REMUX 1080p Latino – CMHDD Full 1080p gratis en mega.

Step Up (2006) REMUX 1080p Latino – CMHDD pelicula full hd, Step Up (2006) REMUX 1080p Latino – CMHDD mega latino, Step Up (2006) REMUX 1080p Latino – CMHDD 4k latino, Step Up (2006) REMUX 1080p Latino – CMHDD pelicula completa, Step Up (2006) REMUX 1080p Latino – CMHDD descargar gratis, descargar Step Up (2006) REMUX 1080p Latino – CMHDD pelicula latino, Step Up (2006) REMUX 1080p Latino – CMHDD 1 link mega, Step Up (2006) REMUX 1080p Latino – CMHDD 1 link google drive, Step Up (2006) REMUX 1080p Latino – CMHDD hd 1080p latino.
Comentarios 0