×

¿Problemas para descargar con Mozilla, EDGE? Deshabilita la opción "Abrir vinculos en una pestaña nueva" tal como lo muestra ésta imagen.

Step Up 2 The Streets (2008) REMUX 1080p Latino – CMHDD

265 vistas

Información de Step Up 2 The Streets (2008) REMUX 1080p Latino – CMHDD

Datos de la película

  • Calidad: Full 1080p
  • Audio: Español Latino AC3 5.1 BLURAY - Ingles AC3 5.1 BLURAY
  • Subtitulos: Español Latino PGS
  • Resolución: 1920x1080p
  • Formato: MKV
  • Codec: H.264
  • Encoder: Dracarys
  • Mediainfo: Clic para Mostrar Datos Ver
  • Format                      : Matroska
    Format version              : Version 4
    File size                   : 22.6 GiB
    Duration                    : 1 h 37 min
    Overall bit rate mode       : Variable
    Overall bit rate            : 33.1 Mb/s
    Movie name                  : Step Up 2 The Streets (2008) REMUX 1080p Latino
    Encoded date                : UTC 2021-01-12 04:12:23
    Writing application         : mkvmerge v51.0.0 ('I Wish') 64-bit
    Writing library             : libebml v1.4.0 + libmatroska v1.6.2

    Video
    ID                          : 1
    Format                      : AVC
    Format/Info                 : Advanced Video Codec
    Format profile              : High@L4.1
    Format settings             : CABAC / 3 Ref Frames
    Format settings, CABAC      : Yes
    Format settings, Reference  : 3 frames
    Codec ID                    : V_MPEG4/ISO/AVC
    Duration                    : 1 h 37 min
    Bit rate mode               : Variable
    Bit rate                    : 24.9 Mb/s
    Maximum bit rate            : 40.0 Mb/s
    Width                       : 1 920 pixels
    Height                      : 1 080 pixels
    Display aspect ratio        : 16:9
    Frame rate mode             : Constant
    Frame rate                  : 23.976 (24000/1001) FPS
    Standard                    : NTSC
    Color space                 : YUV
    Chroma subsampling          : 4:2:0
    Bit depth                   : 8 bits
    Scan type                   : Progressive
    Bits/(Pixel*Frame)          : 0.500
    Stream size                 : 17.0 GiB (75%)
    Language                    : English
    Default                     : No
    Forced                      : No
    Color range                 : Limited

    Audio #1
    ID                          : 2
    Format                      : AC-3
    Format/Info                 : Audio Coding 3
    Commercial name             : Dolby Digital
    Codec ID                    : A_AC3
    Duration                    : 1 h 37 min
    Bit rate mode               : Constant
    Bit rate                    : 640 kb/s
    Channel(s)                  : 6 channels
    Channel layout              : L R C LFE Ls Rs
    Sampling rate               : 48.0 kHz
    Frame rate                  : 31.250 FPS (1536 SPF)
    Compression mode            : Lossy
    Stream size                 : 448 MiB (2%)
    Language                    : Spanish
    Service kind                : Complete Main
    Default                     : Yes
    Forced                      : No

    Audio #2
    ID                          : 3
    Format                      : PCM
    Format settings             : Little / Signed
    Codec ID                    : A_MS/ACM / 00000001-0000-0010-8000-00AA00389B71
    Duration                    : 1 h 37 min
    Bit rate mode               : Constant
    Bit rate                    : 6 912 kb/s / 6 912 kb/s
    Channel(s)                  : 6 channels
    Channel layout              : L R C LFE Ls Rs
    Sampling rate               : 48.0 kHz
    Frame rate                  : 30.000 FPS (1600 SPF)
    Bit depth                   : 24 bits
    Stream size                 : 4.72 GiB (21%)
    Language                    : English
    Default                     : No
    Forced                      : No

    Audio #3
    ID                          : 4
    Format                      : AC-3
    Format/Info                 : Audio Coding 3
    Commercial name             : Dolby Digital
    Codec ID                    : A_AC3
    Duration                    : 1 h 37 min
    Bit rate mode               : Constant
    Bit rate                    : 640 kb/s
    Channel(s)                  : 6 channels
    Channel layout              : L R C LFE Ls Rs
    Sampling rate               : 48.0 kHz
    Frame rate                  : 31.250 FPS (1536 SPF)
    Compression mode            : Lossy
    Stream size                 : 448 MiB (2%)
    Language                    : English
    Service kind                : Complete Main
    Default                     : No
    Forced                      : No

    Text #1
    ID                          : 5
    Format                      : PGS
    Muxing mode                 : zlib
    Codec ID                    : S_HDMV/PGS
    Codec ID/Info               : Picture based subtitle format used on BDs/HD-DVDs
    Duration                    : 1 h 36 min
    Bit rate                    : 20.4 kb/s
    Count of elements           : 1950
    Stream size                 : 14.1 MiB (0%)
    Language                    : Spanish
    Default                     : No
    Forced                      : No

    Text #2
    ID                          : 6
    Format                      : PGS
    Muxing mode                 : zlib
    Codec ID                    : S_HDMV/PGS
    Codec ID/Info               : Picture based subtitle format used on BDs/HD-DVDs
    Duration                    : 1 h 7 min
    Bit rate                    : 376 b/s
    Count of elements           : 26
    Stream size                 : 185 KiB (0%)
    Language                    : Spanish
    Default                     : No
    Forced                      : No

    Menu
    00:00:00.000                : en:Chapter 01
    00:01:44.020                : en:Chapter 02
    00:07:49.802                : en:Chapter 03
    00:14:57.646                : en:Chapter 04
    00:19:06.770                : en:Chapter 05
    00:27:24.184                : en:Chapter 06
    00:38:06.826                : en:Chapter 07
    00:48:14.808                : en:Chapter 08
    01:01:40.947                : en:Chapter 09
    01:11:35.624                : en:Chapter 10
    01:21:17.622                : en:Chapter 11
    01:31:26.314                : en:Chapter 12

  • Peso: 22.6 GiB

Sinopsis

Cuando Andie, una temperamental bailarina, ingresa en la Maryland School of the Arts, no le resulta fácil integrarse en el grupo sin perder su personalidad. Así que decide unirse a Chase, el bailarin con más carácter de la escuela, para formar un grupo de alumnos marginados que participarán en una competición de baile alternativo de Baltimore.

Ficha técnica

Video trailer de la película

Enlaces de descarga

Rip de Bluray

Descargar Step Up 2 The Streets (2008) REMUX 1080p Latino – CMHDD


Aportes de DPeliculasHDmega la pass es:dpeliculashdmega.org Aportes de CinemaniaHD la pass es:cinemaniahdd.com
Guardado en : Drama , Música , Romance

Películas relacionadas

descargar Step Up 2 The Streets (2008) REMUX 1080p Latino – CMHDD Full 1080p 1080p gratis, Step Up 2 The Streets (2008) REMUX 1080p Latino – CMHDD Full 1080p mega 1 link, Step Up 2 The Streets (2008) REMUX 1080p Latino – CMHDD Full 1080p pelicula completa, descargar Step Up 2 The Streets (2008) REMUX 1080p Latino – CMHDD Full 1080p gratis en mega.

Step Up 2 The Streets (2008) REMUX 1080p Latino – CMHDD pelicula full hd, Step Up 2 The Streets (2008) REMUX 1080p Latino – CMHDD mega latino, Step Up 2 The Streets (2008) REMUX 1080p Latino – CMHDD 4k latino, Step Up 2 The Streets (2008) REMUX 1080p Latino – CMHDD pelicula completa, Step Up 2 The Streets (2008) REMUX 1080p Latino – CMHDD descargar gratis, descargar Step Up 2 The Streets (2008) REMUX 1080p Latino – CMHDD pelicula latino, Step Up 2 The Streets (2008) REMUX 1080p Latino – CMHDD 1 link mega, Step Up 2 The Streets (2008) REMUX 1080p Latino – CMHDD 1 link google drive, Step Up 2 The Streets (2008) REMUX 1080p Latino – CMHDD hd 1080p latino.
Comentarios 0