×

¿Problemas para descargar con Mozilla, EDGE? Deshabilita la opción "Abrir vinculos en una pestaña nueva" tal como lo muestra ésta imagen.

Stars and Stripes Forever (1952) REMUX 1080p Latino – CMHDD

205 vistas

Información de Stars and Stripes Forever (1952) REMUX 1080p Latino – CMHDD

Datos de la película

  • Calidad: Full 1080p
  • Audio: Se especifica abajo de la Sinopsis
  • Subtitulos: Español Latino PGS
  • Resolución: 1920x1080p
  • Formato: MKV
  • Codec: H.264
  • Encoder: Dracarys
  • Mediainfo: Clic para Mostrar Datos Ver
  • Format                      : Matroska
    Format version              : Version 4
    File size                   : 19.5 GiB
    Duration                    : 1 h 29 min
    Overall bit rate mode       : Variable
    Overall bit rate            : 31.2 Mb/s
    Movie name                  : Stars and Stripes Forever (1952) REMUX 1080p Latino - CMHDD
    Encoded date                : UTC 2021-07-26 03:09:21
    Writing application         : mkvmerge v56.1.0 ('My Friend') 64-bit
    Writing library             : libebml v1.4.2 + libmatroska v1.6.4
    Cover                       : Yes
    Attachments                 : cover.jpg

    Video
    ID                          : 1
    ID in the original source m : 4113 (0x1011)
    Format                      : AVC
    Format/Info                 : Advanced Video Codec
    Format profile              : High@L4.1
    Format settings             : CABAC / 2 Ref Frames
    Format settings, CABAC      : Yes
    Format settings, Reference  : 2 frames
    Format settings, GOP        : M=1, N=10
    Codec ID                    : V_MPEG4/ISO/AVC
    Duration                    : 1 h 29 min
    Bit rate mode               : Variable
    Bit rate                    : 29.9 Mb/s
    Width                       : 1 920 pixels
    Height                      : 1 080 pixels
    Display aspect ratio        : 16:9
    Frame rate mode             : Constant
    Frame rate                  : 23.976 (24000/1001) FPS
    Color space                 : YUV
    Chroma subsampling          : 4:2:0
    Bit depth                   : 8 bits
    Scan type                   : Progressive
    Bits/(Pixel*Frame)          : 0.602
    Stream size                 : 18.7 GiB (96%)
    Default                     : Yes
    Forced                      : No
    Original source medium      : Blu-ray

    Audio #1
    ID                          : 2
    ID in the original source m : 4352 (0x1100)
    Format                      : DTS XLL
    Format/Info                 : Digital Theater Systems
    Commercial name             : DTS-HD Master Audio
    Codec ID                    : A_DTS
    Duration                    : 1 h 29 min
    Bit rate mode               : Variable
    Bit rate                    : 1 052 kb/s
    Channel(s)                  : 1 channel
    Channel layout              : C
    Sampling rate               : 48.0 kHz
    Frame rate                  : 93.750 FPS (512 SPF)
    Bit depth                   : 24 bits
    Compression mode            : Lossless
    Stream size                 : 673 MiB (3%)
    Language                    : English
    Default                     : No
    Forced                      : No
    Original source medium      : Blu-ray

    Audio #2
    ID                          : 3
    ID in the original source m : 4353 (0x1101)
    Format                      : AC-3
    Format/Info                 : Audio Coding 3
    Commercial name             : Dolby Digital
    Codec ID                    : A_AC3
    Duration                    : 1 h 29 min
    Bit rate mode               : Constant
    Bit rate                    : 192 kb/s
    Channel(s)                  : 1 channel
    Channel layout              : C
    Sampling rate               : 48.0 kHz
    Frame rate                  : 31.250 FPS (1536 SPF)
    Compression mode            : Lossy
    Stream size                 : 123 MiB (1%)
    Language                    : Spanish
    Service kind                : Complete Main
    Default                     : Yes
    Forced                      : No
    Original source medium      : Blu-ray

    Text
    ID                          : 4
    ID in the original source m : 4609 (0x1201)
    Format                      : PGS
    Muxing mode                 : zlib
    Codec ID                    : S_HDMV/PGS
    Codec ID/Info               : Picture based subtitle format used on BDs/HD-DVDs
    Duration                    : 1 h 27 min
    Bit rate                    : 72.0 kb/s
    Count of elements           : 2090
    Stream size                 : 45.2 MiB (0%)
    Language                    : Spanish
    Default                     : No
    Forced                      : No
    Original source medium      : Blu-ray

    Menu
    00:00:00.000                : Chapter 01
    00:04:04.661                : Chapter 02
    00:07:34.454                : Chapter 03
    00:10:55.321                : Chapter 04
    00:14:19.400                : Chapter 05
    00:19:52.983                : Chapter 06
    00:25:41.373                : Chapter 07
    00:30:04.010                : Chapter 08
    00:32:16.142                : Chapter 09
    00:36:24.390                : Chapter 10
    00:40:09.031                : Chapter 11
    00:41:45.920                : Chapter 12
    00:49:08.946                : Chapter 13
    00:54:04.658                : Chapter 14
    00:57:14.055                : Chapter 15
    01:00:36.299                : Chapter 16
    01:04:00.461                : Chapter 17
    01:06:24.605                : Chapter 18
    01:11:11.016                : Chapter 19
    01:14:59.912                : Chapter 20
    01:15:51.171                : Chapter 21
    01:22:04.753                : Chapter 22
    01:25:53.231                : Chapter 23
    01:27:54.269                : Chapter 24

  • Peso: 19.5 GiB

Sinopsis

En la década de 1890, el Sargento Mayor del Cuerpo de Marines John Philip Sousa, conoce a Willie Little, el inventor de un instrumento que él llama el sousafón, y también a su bella novia, la bailarina Lily. Sousa abandona las Fuerzas Armadas y forma su propia banda musical.

 

Latino: AC3 1.0  –  Ingles: DTS-HD MA 1.0

Ficha técnica

  • Titulo original: Stars and Stripes Forever
  • Fecha de lanzamiento: 01-01-1952 (United States of America)
  • Director: Henry Koster
  • Género: Drama, Música

Video trailer de la película

Enlaces de descarga

Rip de Bluray

Descargar Stars and Stripes Forever (1952) REMUX 1080p Latino – CMHDD


Aportes de DPeliculasHDmega la pass es:dpeliculashdmega.org Aportes de CinemaniaHD la pass es:cinemaniahdd.com
Guardado en : Drama , Música

Películas relacionadas

  • Paradise Highway (2022) HD 1080p Latino

    Paradise Highway (2022) HD 1080p Latino

    2022
    Paradise Highway (2022) HD 1080p Latino

    1h 55m 2022

    Descargar Paradise Highway (2022) HD 1080p Latino. Un camionero se ha visto obligado a pasar de contrabando...

    Director: Anna Gutto

    Género: Crimen

    Actores: Xavier Scott Evans

  • Paradise Highway (2022) PLACEBO Full HD 1080p Latino

    Paradise Highway (2022) PLACEBO Full HD 1080p Latino

    2022
    Paradise Highway (2022) PLACEBO Full HD 1080p Latino

    1h 55m 2022

    Descargar Paradise Highway (2022) PLACEBO Full HD 1080p Latino. Un camionero se ha visto obligado a pasar...

    Director: Anna Gutto

    Género: Crimen

    Actores: Xavier Scott Evans

  • Paradise Highway (2022) REMUX 1080p Latino

    Paradise Highway (2022) REMUX 1080p Latino

    2022
    Paradise Highway (2022) REMUX 1080p Latino

    1h 55m 2022

    Descargar Paradise Highway (2022) REMUX 1080p Latino. Un camionero se ha visto obligado a pasar de contrabando...

    Director: Anna Gutto

    Género: Crimen

    Actores: Xavier Scott Evans

  • Narvik (2022) NF WEB-DL 1080p Latino

    Narvik (2022) NF WEB-DL 1080p Latino

    2022
    Narvik (2022) NF WEB-DL 1080p Latino

    1h 48m 2022

    Descargar Narvik (2022) NF WEB-DL 1080p Latino. Abril de 1940. Los ojos del mundo están puestos en Narvik,...

    Director: Suzanne Svae-Johansen

    Género: Acción

    Actores: Torfinn Nag

descargar Stars and Stripes Forever (1952) REMUX 1080p Latino – CMHDD Full 1080p 1080p gratis, Stars and Stripes Forever (1952) REMUX 1080p Latino – CMHDD Full 1080p mega 1 link, Stars and Stripes Forever (1952) REMUX 1080p Latino – CMHDD Full 1080p pelicula completa, descargar Stars and Stripes Forever (1952) REMUX 1080p Latino – CMHDD Full 1080p gratis en mega.

Stars and Stripes Forever (1952) REMUX 1080p Latino – CMHDD pelicula full hd, Stars and Stripes Forever (1952) REMUX 1080p Latino – CMHDD mega latino, Stars and Stripes Forever (1952) REMUX 1080p Latino – CMHDD 4k latino, Stars and Stripes Forever (1952) REMUX 1080p Latino – CMHDD pelicula completa, Stars and Stripes Forever (1952) REMUX 1080p Latino – CMHDD descargar gratis, descargar Stars and Stripes Forever (1952) REMUX 1080p Latino – CMHDD pelicula latino, Stars and Stripes Forever (1952) REMUX 1080p Latino – CMHDD 1 link mega, Stars and Stripes Forever (1952) REMUX 1080p Latino – CMHDD 1 link google drive, Stars and Stripes Forever (1952) REMUX 1080p Latino – CMHDD hd 1080p latino.
Comentarios 0