Stargirl (2020) Temporada 01 REMUX 1080p Latino

11 vistas
1 estrella2 estrellas3 estrellas4 estrellas5 estrellas (2 votos, promedio: 5,00 de 5)
Cargando...

Información de Stargirl (2020) Temporada 01 REMUX 1080p Latino

Datos de la película

  • Calidad: Full 1080p
  • Audio: Se especifica abajo de la Sinopsis
  • Subtitulos: No
  • Resolución: 1920x1080p
  • Formato: MKV
  • Codec: H.264
  • Encoder: CinefiloCool
  • Mediainfo: Clic para Mostrar Datos Ver
  • Stargirl S01E01 (2020) REMUX 1080p Latino-CMHDD.mkv
    Format                      : Matroska
    Format version              : Version 4
    File size                   : 8.99 GiB
    Duration                    : 53 min 10 s
    Overall bit rate mode       : Variable
    Overall bit rate            : 24.2 Mb/s
    Movie name                  : Stargirl S01E01 - Pilot CinemaniaHDD.Net
    Encoded date                : UTC 2021-10-11 07:15:45
    Writing application         : mkvmerge v56.1.0 ('My Friend') 64-bit
    Writing library             : libebml v1.4.2 + libmatroska v1.6.4
    Attachments                 : CINEMANIAHD.png

    Video
    ID                          : 1
    ID in the original source m : 4113 (0x1011)
    Format                      : AVC
    Format/Info                 : Advanced Video Codec
    Format profile              : High@L4.1
    Format settings             : CABAC / 4 Ref Frames
    Format settings, CABAC      : Yes
    Format settings, Reference  : 4 frames
    Codec ID                    : V_MPEG4/ISO/AVC
    Duration                    : 53 min 10 s
    Bit rate mode               : Variable
    Bit rate                    : 21.4 Mb/s
    Maximum bit rate            : 38.0 Mb/s
    Width                       : 1 920 pixels
    Height                      : 1 080 pixels
    Display aspect ratio        : 16:9
    Frame rate mode             : Constant
    Frame rate                  : 23.976 (24000/1001) FPS
    Color space                 : YUV
    Chroma subsampling          : 4:2:0
    Bit depth                   : 8 bits
    Scan type                   : Progressive
    Bits/(Pixel*Frame)          : 0.431
    Stream size                 : 7.95 GiB (88%)
    Title                       : REMUX HD1080p [CinemaniaHDD]
    Default                     : Yes
    Forced                      : Yes
    Original source medium      : Blu-ray

    Audio #1
    ID                          : 2
    Format                      : AC-3
    Format/Info                 : Audio Coding 3
    Commercial name             : Dolby Digital
    Codec ID                    : A_AC3
    Duration                    : 53 min 8 s
    Bit rate mode               : Constant
    Bit rate                    : 384 kb/s
    Channel(s)                  : 6 channels
    Channel layout              : L R C LFE Ls Rs
    Sampling rate               : 48.0 kHz
    Frame rate                  : 31.250 FPS (1536 SPF)
    Compression mode            : Lossy
    Stream size                 : 146 MiB (2%)
    Title                       : Español Latino [CinemaniaHDD]
    Language                    : Spanish
    Service kind                : Complete Main
    Default                     : Yes
    Forced                      : Yes

    Audio #2
    ID                          : 3
    ID in the original source m : 4352 (0x1100)
    Format                      : DTS XLL
    Format/Info                 : Digital Theater Systems
    Commercial name             : DTS-HD Master Audio
    Codec ID                    : A_DTS
    Duration                    : 53 min 10 s
    Bit rate mode               : Variable
    Bit rate                    : 2 386 kb/s
    Channel(s)                  : 6 channels
    Channel layout              : C L R Ls Rs LFE
    Sampling rate               : 48.0 kHz
    Frame rate                  : 93.750 FPS (512 SPF)
    Bit depth                   : 16 bits
    Compression mode            : Lossless
    Stream size                 : 908 MiB (10%)
    Title                       : Ingles [CinemaniaHDD]
    Language                    : English
    Default                     : No
    Forced                      : No
    Original source medium      : Blu-ray

    Text
    ID                          : 4
    ID in the original source m : 4608 (0x1200)
    Format                      : PGS
    Muxing mode                 : zlib
    Codec ID                    : S_HDMV/PGS
    Codec ID/Info               : Picture based subtitle format used on BDs/HD-DVDs
    Duration                    : 52 min 24 s
    Bit rate                    : 33.3 kb/s
    Count of elements           : 1422
    Stream size                 : 12.5 MiB (0%)
    Title                       : Ingles-PGS [CinemaniaHDD]
    Language                    : English
    Default                     : No
    Forced                      : No
    Original source medium      : Blu-ray

    Menu
    00:00:00.000                : Chapter 01
    00:08:08.488                : Chapter 02
    00:16:25.567                : Chapter 03
    00:25:23.522                : Chapter 04
    00:32:17.310                : Chapter 05
    00:40:41.981                : Chapter 06
    00:47:43.277                : Chapter 07
    00:52:42.200                : Chapter 08

  • Peso: 6.47 - 8.98 GiB Aprox. C/U | 97.1 GiB Total.

Sinopsis

Descargar Stargirl (2020) Temporada 01 REMUX 1080p Latino. DC’s STARGIRL sigue a la estudiante de segundo año de secundaria Courtney Whitmore mientras inspira a un inusual grupo de jóvenes héroes para detener a los villanos del pasado.

Argumento Primera Temporada: Una década después de que la mayoría de la Sociedad de la Justicia de América muriera en una batalla en contra de la Sociedad de la Injusticia, la estudiante de segundo año de secundaria Courtney Whitmore descubre el poderoso Bastón Cósmico y, al enterarse de que su padrastro Pat Dugan solía ser el compañero de Starman, se convierte en la inspiración para toda una nueva generación de superhéroes.

Audio:
Español Latino Editado AC3 5.1 HMAX – Ingles DTS-HD 5.1 Bluray
Audio Latino: n0197exe Thanks!!! 😀
Disponible Solo para VIP!!

Ficha técnica

Video trailer de la película

Enlaces de descarga

Rip de Bluray

Descargar Stargirl (2020) Temporada 01 REMUX 1080p Latino


Aportes de DPeliculasHDmega la pass es:dpeliculashdmega.org Aportes de CinemaniaHD la pass es:cinemaniahdd.com

Películas relacionadas

  • Batwoman (2021) Temporada 3 HMAX WEB-DL 1080p Latino

    Batwoman (2021) Temporada 3 HMAX WEB-DL 1080p Latino

    2019
    Batwoman (2021) Temporada 3 HMAX WEB-DL 1080p Latino

    0.0 0h 42m 2019

    Kate Kane protege las calles de Gotham como Batwoman, una luchadora con una gran formación dedicada...

    Director: Caroline Dries

    Género: Action & Adventure

    Actores: Victoria Cartagena

  • Stargirl (2021) Temporada 2 WEB-DL 1080p Latino

    Stargirl (2021) Temporada 2 WEB-DL 1080p Latino

    2020
    Stargirl (2021) Temporada 2 WEB-DL 1080p Latino

    3.7 0h 43m 2020

    Courtney Withmore es una estudiante de instituto que ayuda a un grupo de jóvenes héroes a acabar con...

    Director: Geoff Johns

    Género: Action & Adventure

    Actores: Yvette Monreal

  • Dune (2021) HMAX 4K-HDR WEB-DL 2160p Latino

    Dune (2021) HMAX 4K-HDR WEB-DL 2160p Latino

    2021
    Dune (2021) HMAX 4K-HDR WEB-DL 2160p Latino

    5.0 2h 35m 2021

    El hijo de una familia noble trata de vengarse de la muerte de su padre al mismo tiempo que salva un...

    Director: Tom Struthers

    Género: Acción

    Actores: Zendaya

  • Dune (2021) HMAX WEB-DL 1080p Latino

    Dune (2021) HMAX WEB-DL 1080p Latino

    2021
    Dune (2021) HMAX WEB-DL 1080p Latino

    5.0 2h 35m 2021

    El hijo de una familia noble trata de vengarse de la muerte de su padre al mismo tiempo que salva un...

    Director: Tom Struthers

    Género: Acción

    Actores: Zendaya

Stargirl (2020) Temporada 01 REMUX 1080p Latino pelicula full hd, Stargirl (2020) Temporada 01 REMUX 1080p Latino mega latino, Stargirl (2020) Temporada 01 REMUX 1080p Latino 4k latino, Stargirl (2020) Temporada 01 REMUX 1080p Latino pelicula completa, Stargirl (2020) Temporada 01 REMUX 1080p Latino descargar gratis, descargar Stargirl (2020) Temporada 01 REMUX 1080p Latino pelicula latino, Stargirl (2020) Temporada 01 REMUX 1080p Latino 1 link mega, Stargirl (2020) Temporada 01 REMUX 1080p Latino 1 link google drive, Stargirl (2020) Temporada 01 REMUX 1080p Latino hd 1080p latino.
Comentarios 0