×

¿Problemas para descargar con Mozilla, EDGE? Deshabilita la opción "Abrir vinculos en una pestaña nueva" tal como lo muestra ésta imagen.

Stargirl en Hollywood (2022) D+ Web-DL 1080p Latino

209 vistas

Información de Stargirl en Hollywood (2022) D+ Web-DL 1080p Latino

Datos de la película

  • Calidad: WEBDL
  • Audio: Se especifica abajo de la Sinopsis
  • Subtitulos: Español Latino SRT- FORZADOS SRT
  • Resolución: 1920x1080p
  • Formato: MKV
  • Codec: H.264
  • Encoder: Melkor
  • Mediainfo: Clic para Mostrar Datos Ver
  • Stargirl En Hollywood (2022) D+ WebDL 1080p Latino.mkv
    Format                      : Matroska
    Format version              : Version 4
    File size                   : 5.20 GiB
    Duration                    : 1 h 42 min
    Overall bit rate mode       : Variable
    Overall bit rate            : 7 231 kb/s
    Movie name                  : Hollywood Stargirl (2022) CinemaniaHDD.Net
    Encoded date                : UTC 2022-06-03 20:51:55
    Writing application         : mkvmerge v56.1.0 ('My Friend') 64-bit
    Writing library             : libebml v1.4.2 + libmatroska v1.6.4
    Attachments                 : CINEMANIAHD.png

    Video
    ID                          : 1
    Format                      : AVC
    Format/Info                 : Advanced Video Codec
    Format profile              : High@L4
    Format settings             : CABAC / 4 Ref Frames
    Format settings, CABAC      : Yes
    Format settings, Reference  : 4 frames
    Codec ID                    : V_MPEG4/ISO/AVC
    Duration                    : 1 h 42 min
    Bit rate mode               : Variable
    Bit rate                    : 5 821 kb/s
    Maximum bit rate            : 12.7 Mb/s
    Width                       : 1 920 pixels
    Height                      : 1 080 pixels
    Display aspect ratio        : 16:9
    Frame rate mode             : Constant
    Frame rate                  : 24.000 FPS
    Color space                 : YUV
    Chroma subsampling          : 4:2:0
    Bit depth                   : 8 bits
    Scan type                   : Progressive
    Bits/(Pixel*Frame)          : 0.117
    Stream size                 : 4.18 GiB (80%)
    Title                       : Web HD1080p [CinemaniaHDD]
    Language                    : English
    Default                     : Yes
    Forced                      : Yes
    Color range                 : Limited
    Color primaries             : BT.709
    Transfer characteristics    : BT.709
    Matrix coefficients         : BT.709

    Audio #1
    ID                          : 2
    Format                      : AC-3
    Format/Info                 : Audio Coding 3
    Commercial name             : Dolby Digital
    Codec ID                    : A_AC3
    Duration                    : 1 h 42 min
    Bit rate mode               : Constant
    Bit rate                    : 384 kb/s
    Channel(s)                  : 6 channels
    Channel layout              : L R C LFE Ls Rs
    Sampling rate               : 48.0 kHz
    Frame rate                  : 31.250 FPS (1536 SPF)
    Compression mode            : Lossy
    Stream size                 : 283 MiB (5%)
    Title                       : Español Latino AC3 [CinemaniaHDD]
    Language                    : Spanish
    Service kind                : Complete Main
    Default                     : Yes
    Forced                      : Yes

    Audio #2
    ID                          : 3
    Format                      : E-AC-3 JOC
    Format/Info                 : Enhanced AC-3 with Joint Object Coding
    Commercial name             : Dolby Digital Plus with Dolby Atmos
    Codec ID                    : A_EAC3
    Duration                    : 1 h 42 min
    Bit rate mode               : Constant
    Bit rate                    : 768 kb/s
    Channel(s)                  : 6 channels
    Channel layout              : L R C LFE Ls Rs
    Sampling rate               : 48.0 kHz
    Frame rate                  : 31.250 FPS (1536 SPF)
    Compression mode            : Lossy
    Stream size                 : 565 MiB (11%)
    Title                       : Ingles [CinemaniaHDD]
    Language                    : English
    Service kind                : Complete Main
    Default                     : No
    Forced                      : No
    Complexity index            : 16
    Number of dynamic objects   : 15
    Bed channel count           : 1 channel
    Bed channel configuration   : LFE

    Audio #3
    ID                          : 4
    Format                      : E-AC-3
    Format/Info                 : Enhanced AC-3
    Commercial name             : Dolby Digital Plus
    Codec ID                    : A_EAC3
    Duration                    : 1 h 42 min
    Bit rate mode               : Constant
    Bit rate                    : 256 kb/s
    Channel(s)                  : 6 channels
    Channel layout              : L R C LFE Ls Rs
    Sampling rate               : 48.0 kHz
    Frame rate                  : 31.250 FPS (1536 SPF)
    Compression mode            : Lossy
    Stream size                 : 188 MiB (4%)
    Title                       : Español Latino EAC3 [CinemaniaHDD]
    Language                    : Spanish
    Service kind                : Complete Main
    Default                     : No
    Forced                      : No

    Text #1
    ID                          : 5
    Format                      : UTF-8
    Codec ID                    : S_TEXT/UTF8
    Codec ID/Info               : UTF-8 Plain Text
    Duration                    : 1 h 32 min
    Bit rate                    : 7 b/s
    Count of elements           : 137
    Stream size                 : 5.01 KiB (0%)
    Title                       : Forzados-SRT [CinemaniaHDD]
    Language                    : Spanish
    Default                     : Yes
    Forced                      : Yes

    Text #2
    ID                          : 6
    Format                      : UTF-8
    Codec ID                    : S_TEXT/UTF8
    Codec ID/Info               : UTF-8 Plain Text
    Duration                    : 1 h 41 min
    Bit rate                    : 50 b/s
    Count of elements           : 1265
    Stream size                 : 38.0 KiB (0%)
    Title                       : Español-SRT [CinemaniaHDD]
    Language                    : Spanish
    Default                     : No
    Forced                      : No

    Text #3
    ID                          : 7
    Format                      : UTF-8
    Codec ID                    : S_TEXT/UTF8
    Codec ID/Info               : UTF-8 Plain Text
    Duration                    : 1 h 37 min
    Bit rate                    : 59 b/s
    Count of elements           : 1364
    Stream size                 : 42.8 KiB (0%)
    Title                       : Ingles-SRT [CinemaniaHDD]
    Language                    : English
    Default                     : No
    Forced                      : No

  • Peso: 5.20 GiB

Sinopsis

Descargar Stargirl en Hollywood (2022) D+ Web-DL 1080p Latino. Una secuela del éxito de Disney+ Stargirl, una adolescente de voz privilegiada cuya bondad obra maravillas en la vida de los demás, sigue a la protagonista desde Mica, Arizona, a un nuevo mundo lleno de música, sueños y posibilidades. Cuando contratan a su madre para trabajar en una película ambas se mudan a Los Ángeles, donde Stargirl se hace amiga de dos hermanos aspirantes a cineastas, un vecino gruñón y una música a la que admira

Español Latino EAC3 & AC3 5.1 D+ – Ingles EAC3 JOC 5.1 D+

Ficha técnica

Video trailer de la película

Enlaces de descarga

Rip de Bluray

Descargar Stargirl en Hollywood (2022) D+ Web-DL 1080p Latino




Aportes de DPeliculasHDmega la pass es:dpeliculashdmega.org Aportes de CinemaniaHD la pass es:cinemaniahdd.com
Guardado en : Comedia , Drama , Música , Romance

Películas relacionadas

  • Tren Bala (2022) WEB-DL 4K UHD HDR Latino

    Tren Bala (2022) WEB-DL 4K UHD HDR Latino

    2022
    Tren Bala (2022) WEB-DL 4K UHD HDR Latino

    2h 7m 2022

    Descargar Tren Bala (2022) WEB-DL 4K UHD HDR Latino. El desafortunado asesino "Catarina" está decidido...

    Director: Paul Barry

    Género: 4K HDR

    Actores: Zooey Miyoshi

  • Tren Bala (2022) AMZN WEB-DL 1080p Latino

    Tren Bala (2022) AMZN WEB-DL 1080p Latino

    2022
    Tren Bala (2022) AMZN WEB-DL 1080p Latino

    2h 7m 2022

    Descargar Tren Bala (2022) AMZN WEB-DL 1080p Latino. Cinco asesinos a sueldo se encuentran a bordo de...

    Director: Paul Barry

    Género: Acción

    Actores: Zooey Miyoshi

  • Infiniti (2022) Primera Temporada WEB-DL 1080p Latino

    Infiniti (2022) Primera Temporada WEB-DL 1080p Latino

    2022
    Infiniti (2022) Primera Temporada WEB-DL 1080p Latino

    0h 52m 2022

    La ISS, la Estación Espacial Internacional se ha quedado en silencio. La tripulación está en peligro....

    Director: Stéphane Pannetier

    Género: Drama

    Actores: Vlad Ivanov

  • Rick y Morty (2022) Temporada 6 WEB-DL 1080p Latino

    Rick y Morty (2022) Temporada 6 WEB-DL 1080p Latino

    2013
    Rick y Morty (2022) Temporada 6 WEB-DL 1080p Latino

    0h 22m 2013

    Comedia animada que narra las aventuras de un científico loco Rick Sánchez, que regresa después de...

    Director: Justin Roiland

    Género: Action & Adventure

    Actores: Spencer Grammer

descargar Stargirl en Hollywood (2022) D+ Web-DL 1080p Latino WEBDL 1080p gratis, Stargirl en Hollywood (2022) D+ Web-DL 1080p Latino WEBDL mega 1 link, Stargirl en Hollywood (2022) D+ Web-DL 1080p Latino WEBDL pelicula completa, descargar Stargirl en Hollywood (2022) D+ Web-DL 1080p Latino WEBDL gratis en mega.

Stargirl en Hollywood (2022) D+ Web-DL 1080p Latino pelicula full hd, Stargirl en Hollywood (2022) D+ Web-DL 1080p Latino mega latino, Stargirl en Hollywood (2022) D+ Web-DL 1080p Latino 4k latino, Stargirl en Hollywood (2022) D+ Web-DL 1080p Latino pelicula completa, Stargirl en Hollywood (2022) D+ Web-DL 1080p Latino descargar gratis, descargar Stargirl en Hollywood (2022) D+ Web-DL 1080p Latino pelicula latino, Stargirl en Hollywood (2022) D+ Web-DL 1080p Latino 1 link mega, Stargirl en Hollywood (2022) D+ Web-DL 1080p Latino 1 link google drive, Stargirl en Hollywood (2022) D+ Web-DL 1080p Latino hd 1080p latino.
Comentarios 0