×

¿Problemas para descargar con Mozilla, EDGE? Deshabilita la opción "Abrir vinculos en una pestaña nueva" tal como lo muestra ésta imagen.

Stardust: El Misterio De La Estrella (2007) REMUX 1080p Latino

274 vistas

Información de Stardust: El Misterio De La Estrella (2007) REMUX 1080p Latino

Datos de la película

  • Calidad: Full 1080p
  • Audio: Español Latino AC3 5.1 BLURAY - Ingles DTS 5.1 BLURAY
  • Subtitulos: Español Latino PGS - Ingles PGS
  • Resolución: 1920x1080p
  • Formato: MKV
  • Codec: H.264
  • Encoder: CinefiloCool
  • Mediainfo: Clic para Mostrar Datos Ver
  • Stardust El Misterio De La Estrella (2007) REMUX 1080p Latino-CMHDD.mkv
    Format                      : Matroska
    Format version              : Version 4
    File size                   : 30.8 GiB
    Duration                    : 2 h 7 min
    Overall bit rate mode       : Variable
    Overall bit rate            : 34.5 Mb/s
    Movie name                  : Stardust (2007) CinemaniaHDD.Net
    Encoded date                : UTC 2021-10-16 01:22:14
    Writing application         : mkvmerge v56.1.0 ('My Friend') 64-bit
    Writing library             : libebml v1.4.2 + libmatroska v1.6.4
    Attachments                 : CINEMANIAHD.png

    Video
    ID                          : 1
    Format                      : AVC
    Format/Info                 : Advanced Video Codec
    Format profile              : High@L4.1
    Format settings             : CABAC / 4 Ref Frames
    Format settings, CABAC      : Yes
    Format settings, Reference  : 4 frames
    Format settings, GOP        : M=3, N=12
    Codec ID                    : V_MPEG4/ISO/AVC
    Duration                    : 2 h 7 min
    Bit rate mode               : Variable
    Bit rate                    : 30.0 Mb/s
    Maximum bit rate            : 37.0 Mb/s
    Width                       : 1 920 pixels
    Height                      : 1 080 pixels
    Display aspect ratio        : 16:9
    Frame rate mode             : Constant
    Frame rate                  : 23.976 (24000/1001) FPS
    Color space                 : YUV
    Chroma subsampling          : 4:2:0
    Bit depth                   : 8 bits
    Scan type                   : Progressive
    Bits/(Pixel*Frame)          : 0.604
    Stream size                 : 26.8 GiB (87%)
    Title                       : REMUX HD1080p [CinemaniaHDD]
    Language                    : English
    Default                     : Yes
    Forced                      : Yes
    Color range                 : Limited
    Color primaries             : BT.709
    Transfer characteristics    : BT.709
    Matrix coefficients         : BT.709

    Audio #1
    ID                          : 2
    Format                      : AC-3
    Format/Info                 : Audio Coding 3
    Commercial name             : Dolby Digital
    Codec ID                    : A_AC3
    Duration                    : 2 h 7 min
    Bit rate mode               : Constant
    Bit rate                    : 640 kb/s
    Channel(s)                  : 6 channels
    Channel layout              : L R C LFE Ls Rs
    Sampling rate               : 48.0 kHz
    Frame rate                  : 31.250 FPS (1536 SPF)
    Compression mode            : Lossy
    Stream size                 : 585 MiB (2%)
    Title                       : Español Latino [CinemaniaHDD]
    Language                    : Spanish
    Service kind                : Complete Main
    Default                     : Yes
    Forced                      : Yes

    Audio #2
    ID                          : 3
    Format                      : DTS XLL
    Format/Info                 : Digital Theater Systems
    Commercial name             : DTS-HD Master Audio
    Codec ID                    : A_DTS
    Duration                    : 2 h 7 min
    Bit rate mode               : Variable
    Bit rate                    : 3 843 kb/s
    Channel(s)                  : 6 channels
    Channel layout              : C L R Ls Rs LFE
    Sampling rate               : 48.0 kHz
    Frame rate                  : 93.750 FPS (512 SPF)
    Bit depth                   : 24 bits
    Compression mode            : Lossless
    Stream size                 : 3.43 GiB (11%)
    Title                       : Ingles [CinemaniaHDD]
    Language                    : English
    Default                     : No
    Forced                      : No

    Text #1
    ID                          : 4
    Format                      : PGS
    Muxing mode                 : zlib
    Codec ID                    : S_HDMV/PGS
    Codec ID/Info               : Picture based subtitle format used on BDs/HD-DVDs
    Duration                    : 2 h 7 min
    Bit rate                    : 26.0 kb/s
    Count of elements           : 2344
    Stream size                 : 23.6 MiB (0%)
    Title                       : Español-PGS [CinemaniaHDD]
    Language                    : Spanish
    Default                     : No
    Forced                      : No

    Text #2
    ID                          : 5
    Format                      : PGS
    Muxing mode                 : zlib
    Codec ID                    : S_HDMV/PGS
    Codec ID/Info               : Picture based subtitle format used on BDs/HD-DVDs
    Duration                    : 2 h 0 min
    Bit rate                    : 31.9 kb/s
    Count of elements           : 2442
    Stream size                 : 27.4 MiB (0%)
    Title                       : Ingles-PGS [CinemaniaHDD]
    Language                    : English
    Default                     : No
    Forced                      : No

    Text #3
    ID                          : 6
    Format                      : UTF-8
    Codec ID                    : S_TEXT/UTF8
    Codec ID/Info               : UTF-8 Plain Text
    Duration                    : 1 h 23 min
    Bit rate                    : 0 b/s
    Count of elements           : 5
    Stream size                 : 107 Bytes (0%)
    Title                       : Forzados-SRT [CinemaniaHDD]
    Language                    : Spanish
    Default                     : Yes
    Forced                      : Yes

    Text #4
    ID                          : 7
    Format                      : UTF-8
    Codec ID                    : S_TEXT/UTF8
    Codec ID/Info               : UTF-8 Plain Text
    Duration                    : 2 h 0 min
    Bit rate                    : 45 b/s
    Count of elements           : 1171
    Stream size                 : 39.6 KiB (0%)
    Title                       : Español-SRT [CinemaniaHDD]
    Language                    : Spanish
    Default                     : No
    Forced                      : No

    Menu
    00:00:00.000                : 00:00:00.000
    00:07:29.157                : 00:07:29.157
    00:15:59.917                : 00:15:59.917
    00:23:14.727                : 00:23:14.727
    00:30:02.759                : 00:30:02.759
    00:38:16.461                : 00:38:16.461
    00:44:41.512                : 00:44:41.512
    00:51:01.934                : 00:51:01.934
    00:56:46.111                : 00:56:46.111
    01:04:10.847                : 01:04:10.847
    01:11:55.269                : 01:11:55.269
    01:18:28.078                : 01:18:28.078
    01:25:06.476                : 01:25:06.476
    01:33:36.194                : 01:33:36.194
    01:42:08.372                : 01:42:08.372
    01:49:02.578                : 01:49:02.578
    01:55:44.729                : 01:55:44.729
    02:00:49.451                : 02:00:49.451

  • Peso: 30.8 GiB

Sinopsis

Descargar Stardust: El Misterio De La Estrella (2007) REMUX 1080p Latino. Tristan un joven trabajador y poco adaptado a la sociedad, siempre ha soñado con salir de Muro, pero más ha soñado con Victoria, la muchacha más linda del pueblo, y a quién él corteja incansablemente sin llegar a la fría joven y siendo pasado a llevar por su rival. A pesar de todo, cuando Victoria le comenta que cosas la harían cambiar de opinión de casarse con otro, Tristan no duda en prometerle ir en busca de la primera estrella fugaz que ve pasar, y así lo hace.

Disponible Solo Para VIP!!! 🙂

Ficha técnica

Video trailer de la película

Enlaces de descarga

Rip de Bluray

Descargar Stardust: El Misterio De La Estrella (2007) REMUX 1080p Latino


Aportes de DPeliculasHDmega la pass es:dpeliculashdmega.org Aportes de CinemaniaHD la pass es:cinemaniahdd.com
Guardado en : Aventura , Familia , Fantasía , Remux , Romance

Películas relacionadas

descargar Stardust: El Misterio De La Estrella (2007) REMUX 1080p Latino Full 1080p 1080p gratis, Stardust: El Misterio De La Estrella (2007) REMUX 1080p Latino Full 1080p mega 1 link, Stardust: El Misterio De La Estrella (2007) REMUX 1080p Latino Full 1080p pelicula completa, descargar Stardust: El Misterio De La Estrella (2007) REMUX 1080p Latino Full 1080p gratis en mega.

Stardust: El Misterio De La Estrella (2007) REMUX 1080p Latino pelicula full hd, Stardust: El Misterio De La Estrella (2007) REMUX 1080p Latino mega latino, Stardust: El Misterio De La Estrella (2007) REMUX 1080p Latino 4k latino, Stardust: El Misterio De La Estrella (2007) REMUX 1080p Latino pelicula completa, Stardust: El Misterio De La Estrella (2007) REMUX 1080p Latino descargar gratis, descargar Stardust: El Misterio De La Estrella (2007) REMUX 1080p Latino pelicula latino, Stardust: El Misterio De La Estrella (2007) REMUX 1080p Latino 1 link mega, Stardust: El Misterio De La Estrella (2007) REMUX 1080p Latino 1 link google drive, Stardust: El Misterio De La Estrella (2007) REMUX 1080p Latino hd 1080p latino.
Comentarios 0