Star Wars: Visions (2021) Temporada 1 WEB-DL 1080p Latino

38 vistas
1 estrella2 estrellas3 estrellas4 estrellas5 estrellas (1 votos, promedio: 5,00 de 5)
Cargando...

Información de Star Wars: Visions (2021) Temporada 1 WEB-DL 1080p Latino

Datos de la película

  • Calidad: WEBDL
  • Audio: Se especifica abajo de la Sinopsis
  • Subtitulos: Español Latino SRT- FORZADOS SRT
  • Resolución: 1920x1080p
  • Formato: MKV
  • Codec: H.264
  • Encoder: CinemaniaHD
  • Mediainfo: Clic para Mostrar Datos Ver
  • Star Wars Visions S01E01 (2021) D+ Web-DL 1080p Latino.mkv
    Format                      : Matroska
    Format version              : Version 4
    File size                   : 794 MiB
    Duration                    : 13 min 1 s
    Overall bit rate mode       : Variable
    Overall bit rate            : 8 525 kb/s
    Movie name                  : CinemaniaHDD.Net
    Encoded date                : UTC 2021-09-22 16:41:25
    Writing application         : mkvmerge v56.1.0 ('My Friend') 64-bit
    Writing library             : libebml v1.4.2 + libmatroska v1.6.4
    Attachments                 : CINEMANIAHD.png

    Video
    ID                          : 1
    Format                      : AVC
    Format/Info                 : Advanced Video Codec
    Format profile              : High@L4
    Format settings             : CABAC / 4 Ref Frames
    Format settings, CABAC      : Yes
    Format settings, Reference  : 4 frames
    Codec ID                    : V_MPEG4/ISO/AVC
    Duration                    : 13 min 1 s
    Bit rate mode               : Variable
    Bit rate                    : 7 754 kb/s
    Maximum bit rate            : 12.7 Mb/s
    Width                       : 1 920 pixels
    Height                      : 1 080 pixels
    Display aspect ratio        : 16:9
    Frame rate mode             : Constant
    Frame rate                  : 24.000 FPS
    Color space                 : YUV
    Chroma subsampling          : 4:2:0
    Bit depth                   : 8 bits
    Scan type                   : Progressive
    Bits/(Pixel*Frame)          : 0.156
    Stream size                 : 722 MiB (91%)
    Title                       : WEB HD1080p [CinemaniaHDD]
    Language                    : English
    Default                     : Yes
    Forced                      : No
    Color range                 : Limited
    Color primaries             : BT.709
    Transfer characteristics    : BT.709
    Matrix coefficients         : BT.709

    Audio #1
    ID                          : 2
    Format                      : E-AC-3
    Format/Info                 : Enhanced AC-3
    Commercial name             : Dolby Digital Plus
    Codec ID                    : A_EAC3
    Duration                    : 13 min 1 s
    Bit rate mode               : Constant
    Bit rate                    : 256 kb/s
    Channel(s)                  : 6 channels
    Channel layout              : L R C LFE Ls Rs
    Sampling rate               : 48.0 kHz
    Frame rate                  : 31.250 FPS (1536 SPF)
    Compression mode            : Lossy
    Stream size                 : 23.8 MiB (3%)
    Title                       : Español Latino [CinemaniaHDD]
    Language                    : Spanish
    Service kind                : Complete Main
    Default                     : Yes
    Forced                      : No

    Audio #2
    ID                          : 3
    Format                      : E-AC-3
    Format/Info                 : Enhanced AC-3
    Commercial name             : Dolby Digital Plus
    Codec ID                    : A_EAC3
    Duration                    : 13 min 1 s
    Bit rate mode               : Constant
    Bit rate                    : 256 kb/s
    Channel(s)                  : 6 channels
    Channel layout              : L R C LFE Ls Rs
    Sampling rate               : 48.0 kHz
    Frame rate                  : 31.250 FPS (1536 SPF)
    Compression mode            : Lossy
    Stream size                 : 23.8 MiB (3%)
    Title                       : Japones [CinemaniaHDD]
    Language                    : Japanese
    Service kind                : Complete Main
    Default                     : No
    Forced                      : No

    Audio #3
    ID                          : 4
    Format                      : E-AC-3
    Format/Info                 : Enhanced AC-3
    Commercial name             : Dolby Digital Plus
    Codec ID                    : A_EAC3
    Duration                    : 13 min 1 s
    Bit rate mode               : Constant
    Bit rate                    : 256 kb/s
    Channel(s)                  : 6 channels
    Channel layout              : L R C LFE Ls Rs
    Sampling rate               : 48.0 kHz
    Frame rate                  : 31.250 FPS (1536 SPF)
    Compression mode            : Lossy
    Stream size                 : 23.8 MiB (3%)
    Title                       : Ingles [CinemaniaHDD]
    Language                    : English
    Service kind                : Complete Main
    Default                     : No
    Forced                      : No

    Text #1
    ID                          : 5
    Format                      : UTF-8
    Codec ID                    : S_TEXT/UTF8
    Codec ID/Info               : UTF-8 Plain Text
    Duration                    : 12 min 37 s
    Bit rate                    : 0 b/s
    Count of elements           : 2
    Stream size                 : 32.0 Bytes (0%)
    Title                       : Forzados-SRT [CinemaniaHDD]
    Language                    : Spanish
    Default                     : Yes
    Forced                      : No

    Text #2
    ID                          : 6
    Format                      : UTF-8
    Codec ID                    : S_TEXT/UTF8
    Codec ID/Info               : UTF-8 Plain Text
    Duration                    : 12 min 37 s
    Bit rate                    : 23 b/s
    Count of elements           : 72
    Stream size                 : 2.20 KiB (0%)
    Title                       : Español-SRT [CinemaniaHDD]
    Language                    : Spanish
    Default                     : No
    Forced                      : No

    Text #3
    ID                          : 7
    Format                      : UTF-8
    Codec ID                    : S_TEXT/UTF8
    Codec ID/Info               : UTF-8 Plain Text
    Duration                    : 10 min 44 s
    Bit rate                    : 29 b/s
    Count of elements           : 76
    Stream size                 : 2.32 KiB (0%)
    Title                       : Ingles-SRT [CinemaniaHDD]
    Language                    : English
    Default                     : No
    Forced                      : No

    Menu
    00:00:11.833                : Intro
    00:00:19.375                : Scene 1
    00:12:49.083                : Credits

  • Peso: 570MB - 1GB Aprox. C/U | 6.81 GiB Total

Sinopsis

Descargar Star Wars: Visions (2021) Temporada 1 WEB-DL 1080p Latino. Star Wars Visions es una antología de cortos animados que celebra a Star Wars a través de la lente de los mejores creadores de anime y narradores del mundo. Algunas secuencias o patrones de luces intermitentes pueden afectar a espectadores fotosensibles.

Audio Español Latino, Japones & Ingles EAC3 5.1 D+
9/9 Capitulos Disponibles!!

Ficha técnica

  • Titulo original: スター・ウォーズ:ビジョンズ
  • Fecha de lanzamiento: 22-09-2021 (JP, US)
  • Género: Animación, Sci-Fi & Fantasy, Series
  • Puntuación: 5.0 1 votos
  • Duración:
    0h 17m

Video trailer de la película

Enlaces de descarga

Rip de Bluray

Descargar Star Wars: Visions (2021) Temporada 1 WEB-DL 1080p Latino




Aportes de DPeliculasHDmega la pass es:dpeliculashdmega.org Aportes de CinemaniaHD la pass es:cinemaniahdd.com

Películas relacionadas

Star Wars: Visions (2021) Temporada 1 WEB-DL 1080p Latino pelicula full hd, Star Wars: Visions (2021) Temporada 1 WEB-DL 1080p Latino mega latino, Star Wars: Visions (2021) Temporada 1 WEB-DL 1080p Latino 4k latino, Star Wars: Visions (2021) Temporada 1 WEB-DL 1080p Latino pelicula completa, Star Wars: Visions (2021) Temporada 1 WEB-DL 1080p Latino descargar gratis, descargar Star Wars: Visions (2021) Temporada 1 WEB-DL 1080p Latino pelicula latino, Star Wars: Visions (2021) Temporada 1 WEB-DL 1080p Latino 1 link mega, Star Wars: Visions (2021) Temporada 1 WEB-DL 1080p Latino 1 link google drive, Star Wars: Visions (2021) Temporada 1 WEB-DL 1080p Latino hd 1080p latino.
Comentarios 0