×

¿Problemas para descargar con Mozilla, EDGE? Deshabilita la opción "Abrir vinculos en una pestaña nueva" tal como lo muestra ésta imagen.

Star Wars: Episodio VIII (2017) REMUX 1080p Latino

1.020 vistas

Información de Star Wars: Episodio VIII (2017) REMUX 1080p Latino

Datos de la película

  • Calidad: Full 1080p
  • Audio: Español Latino AC3 5.1 BLURAY - Ingles DTS-HD Master 7.1 BLURAY
  • Subtitulos: Español Latino PGS - Ingles PGS
  • Resolución: 1920x1080p
  • Formato: MKV
  • Codec: H.264
  • Encoder: CinefiloCool
  • Mediainfo: Clic para Mostrar Datos Ver
  • Star Wars Episodio VIII (2017) REMUX 1080p Latino-CMHDD.mkv
    Format                      : Matroska
    Format version              : Version 4
    File size                   : 38.2 GiB
    Duration                    : 2 h 31 min
    Overall bit rate mode       : Variable
    Overall bit rate            : 36.0 Mb/s
    Movie name                  : Los Ultimos Jedi (2017) CinemaniaHDD.Net
    Encoded date                : UTC 2022-05-08 04:19:46
    Writing application         : mkvmerge v56.1.0 ('My Friend') 64-bit
    Writing library             : libebml v1.4.2 + libmatroska v1.6.4
    Attachments                 : CINEMANIAHD.png

    Video
    ID                          : 1
    Format                      : AVC
    Format/Info                 : Advanced Video Codec
    Format profile              : High@L4.1
    Format settings             : CABAC / 4 Ref Frames
    Format settings, CABAC      : Yes
    Format settings, Reference  : 4 frames
    Codec ID                    : V_MPEG4/ISO/AVC
    Duration                    : 2 h 31 min
    Bit rate mode               : Variable
    Bit rate                    : 30.7 Mb/s
    Maximum bit rate            : 37.0 Mb/s
    Width                       : 1 920 pixels
    Height                      : 1 080 pixels
    Display aspect ratio        : 16:9
    Frame rate mode             : Constant
    Frame rate                  : 23.976 (23976/1000) FPS
    Original frame rate         : 23.976 (24000/1001) FPS
    Color space                 : YUV
    Chroma subsampling          : 4:2:0
    Bit depth                   : 8 bits
    Scan type                   : Progressive
    Bits/(Pixel*Frame)          : 0.618
    Stream size                 : 32.6 GiB (85%)
    Title                       : REMUX HD1080p [CinemaniaHDD]
    Default                     : Yes
    Forced                      : Yes

    Audio #1
    ID                          : 2
    Format                      : AC-3
    Format/Info                 : Audio Coding 3
    Commercial name             : Dolby Digital
    Codec ID                    : A_AC3
    Duration                    : 2 h 31 min
    Bit rate mode               : Constant
    Bit rate                    : 640 kb/s
    Channel(s)                  : 6 channels
    Channel layout              : L R C LFE Ls Rs
    Sampling rate               : 48.0 kHz
    Frame rate                  : 31.250 FPS (1536 SPF)
    Compression mode            : Lossy
    Stream size                 : 695 MiB (2%)
    Title                       : Español Latino [CinemaniaHDD]
    Language                    : Spanish
    Service kind                : Complete Main
    Default                     : Yes
    Forced                      : Yes

    Audio #2
    ID                          : 3
    Format                      : DTS XLL
    Format/Info                 : Digital Theater Systems
    Commercial name             : DTS-HD Master Audio
    Codec ID                    : A_DTS
    Duration                    : 2 h 31 min
    Bit rate mode               : Variable
    Bit rate                    : 4 629 kb/s
    Channel(s)                  : 8 channels
    Channel layout              : C L R LFE Lb Rb Lss Rss
    Sampling rate               : 48.0 kHz
    Frame rate                  : 93.750 FPS (512 SPF)
    Bit depth                   : 24 bits
    Compression mode            : Lossless
    Stream size                 : 4.91 GiB (13%)
    Title                       : Ingles [CinemaniaHDD]
    Language                    : English
    Default                     : No
    Forced                      : No

    Text #1
    ID                          : 4
    Format                      : PGS
    Muxing mode                 : zlib
    Codec ID                    : S_HDMV/PGS
    Codec ID/Info               : Picture based subtitle format used on BDs/HD-DVDs
    Duration                    : 2 h 22 min
    Bit rate                    : 25.7 kb/s
    Count of elements           : 3182
    Stream size                 : 26.2 MiB (0%)
    Title                       : Español-PGS [CinemaniaHDD]
    Language                    : Spanish
    Default                     : No
    Forced                      : No

    Text #2
    ID                          : 5
    Format                      : PGS
    Muxing mode                 : zlib
    Codec ID                    : S_HDMV/PGS
    Codec ID/Info               : Picture based subtitle format used on BDs/HD-DVDs
    Duration                    : 2 h 23 min
    Bit rate                    : 31.0 kb/s
    Count of elements           : 3796
    Stream size                 : 31.8 MiB (0%)
    Title                       : Ingles-PGS [CinemaniaHDD]
    Language                    : English
    Default                     : No
    Forced                      : No

    Text #3
    ID                          : 6
    Format                      : UTF-8
    Codec ID                    : S_TEXT/UTF8
    Codec ID/Info               : UTF-8 Plain Text
    Duration                    : 2 h 17 min
    Bit rate                    : 0 b/s
    Count of elements           : 8
    Stream size                 : 148 Bytes (0%)
    Title                       : Forzados-SRT [CinemaniaHDD]
    Language                    : Spanish
    Default                     : Yes
    Forced                      : Yes

    Text #4
    ID                          : 7
    Format                      : UTF-8
    Codec ID                    : S_TEXT/UTF8
    Codec ID/Info               : UTF-8 Plain Text
    Duration                    : 2 h 20 min
    Bit rate                    : 42 b/s
    Count of elements           : 1576
    Stream size                 : 43.4 KiB (0%)
    Title                       : Español-SRT [CinemaniaHDD]
    Language                    : Spanish
    Default                     : No
    Forced                      : No

    Menu
    00:00:00.000                : Opening Logo
    00:00:18.643                : The Last Jedi
    00:01:45.730                : Resistance Evacuation
    00:03:11.816                : Poe Attacks
    00:07:43.296                : Bombing Run
    00:12:48.434                : Finn Awakens
    00:13:44.573                : Luke's Refusal
    00:16:29.279                : Snoke's Rebuke
    00:19:59.281                : Island Life
    00:22:51.369                : "Time For The Jedi To End"
    00:26:04.980                : "Dead Heroes. No Leaders"
    00:27:22.849                : First Order Ambush
    00:31:24.757                : Survival
    00:32:54.681                : Falcon At Night
    00:35:27.667                : Vice Admiral Holdo
    00:38:11.497                : Finn Meets Rose
    00:41:53.427                : A Conspiracy Forms
    00:44:29.541                : Force Connection
    00:46:51.475                : Lessons In The Force
    00:51:41.932                : Reconnection
    00:53:50.060                : Arrival At Canto Bight
    00:55:41.504                : The Race Begins
    00:57:39.581                : Lightsaber Training
    00:59:16.636                : Luke's History Lesson
    01:02:05.847                : The Shrinking Fleet
    01:03:07.700                : Meeting DJ
    01:05:41.729                : Inside The Stables
    01:07:03.477                : Fathier Escape
    01:10:25.721                : Kylo's History Lesson
    01:13:30.322                : The Mirror Cave
    01:17:43.450                : Ray vs. Luke
    01:20:53.056                : An Old Friend
    01:24:17.969                : Making The Deal
    01:26:23.219                : Poe Confronts Holdo
    01:27:59.524                : Plotting Next Moves
    01:30:49.360                : Inside The Mega-Destroyer
    01:32:54.568                : Reversals
    01:35:53.706                : Abandon Ship
    01:37:10.616                : Rey Faces Snoke
    01:39:12.863                : Darkness Grows
    01:42:07.663                : Kylo's Choice
    01:45:03.714                : Praetorian Duel
    01:49:35.694                : Holdo's Sacrifice
    01:52:20.608                : Chaos In The Hangar
    01:56:04.749                : Reunion On Crait
    01:58:52.083                : The Battle Of Crait
    02:03:11.133                : Siege Cannon
    02:06:39.758                : Master Skywalker
    02:11:43.604                : "Lifting Rocks"
    02:15:12.103                : Sunset
    02:20:16.699                : The Resistance Continues
    02:23:39.694                : End Credits

  • Peso: 38.2 GiB

Sinopsis

Descargar Star Wars: Episodio VIII (2017) REMUX 1080p Latino. La fuerza siente un cambio y los Maestros Jedi saben que es el momento de regresar. La galaxia se encuentra perdida y separada, y deberán unir fuerzas si no quieren que sea el fin de la paz. Con el rumor de una guerra, los pocos aliados que quedan emprenderán la búsqueda para aumentar sus aliados, mientras se enfrentan a la desconfianza y el temor de aquellos que no olvidan ni perdonan. Mundos casi olvidados, personajes misteriosos y viejas caras conocidas, una nueva aventura está a punto de comenzar para mantener la frágil supervivencia de La República, mientras se preparan para lo que está por llegar.

Nota: Intro Con Textos En Español 🙂

Resubido para VIP!!!

Ficha técnica

Video trailer de la película

Enlaces de descarga

Rip de Bluray

Descargar Star Wars: Episodio VIII (2017) REMUX 1080p Latino




Aportes de DPeliculasHDmega la pass es:dpeliculashdmega.org Aportes de CinemaniaHD la pass es:cinemaniahdd.com
Guardado en : Acción , Aventura , Ciencia ficción , Remux

Películas relacionadas

descargar Star Wars: Episodio VIII (2017) REMUX 1080p Latino Full 1080p 1080p gratis, Star Wars: Episodio VIII (2017) REMUX 1080p Latino Full 1080p mega 1 link, Star Wars: Episodio VIII (2017) REMUX 1080p Latino Full 1080p pelicula completa, descargar Star Wars: Episodio VIII (2017) REMUX 1080p Latino Full 1080p gratis en mega.

Star Wars: Episodio VIII (2017) REMUX 1080p Latino pelicula full hd, Star Wars: Episodio VIII (2017) REMUX 1080p Latino mega latino, Star Wars: Episodio VIII (2017) REMUX 1080p Latino 4k latino, Star Wars: Episodio VIII (2017) REMUX 1080p Latino pelicula completa, Star Wars: Episodio VIII (2017) REMUX 1080p Latino descargar gratis, descargar Star Wars: Episodio VIII (2017) REMUX 1080p Latino pelicula latino, Star Wars: Episodio VIII (2017) REMUX 1080p Latino 1 link mega, Star Wars: Episodio VIII (2017) REMUX 1080p Latino 1 link google drive, Star Wars: Episodio VIII (2017) REMUX 1080p Latino hd 1080p latino.
Comentarios 0