×

¿Problemas para descargar con Mozilla, EDGE? Deshabilita la opción "Abrir vinculos en una pestaña nueva" tal como lo muestra ésta imagen.

Star Wars: Episodio VII (2015) REMUX 1080p Latino

828 vistas

Información de Star Wars: Episodio VII (2015) REMUX 1080p Latino

Datos de la película

  • Calidad: Full 1080p
  • Audio: Español Latino AC3 5.1 BLURAY - Ingles DTS-HD Master 7.1 BLURAY
  • Subtitulos: Español Latino PGS - Ingles PGS
  • Resolución: 1920x1080p
  • Formato: MKV
  • Codec: H.264
  • Encoder: CinefiloCool
  • Mediainfo: Clic para Mostrar Datos Ver
  • Star Wars Episodio VII (2015) REMUX 1080p Latino-CMHDD.mkv
    Format                      : Matroska
    Format version              : Version 4
    File size                   : 34.5 GiB
    Duration                    : 2 h 18 min
    Overall bit rate mode       : Variable
    Overall bit rate            : 35.7 Mb/s
    Movie name                  : El Despertar De La Fuerza (2015) CinemaniaHDD.Net
    Encoded date                : UTC 2022-05-08 03:33:43
    Writing application         : mkvmerge v56.1.0 ('My Friend') 64-bit
    Writing library             : libebml v1.4.2 + libmatroska v1.6.4
    Attachments                 : CINEMANIAHD.png

    Video
    ID                          : 1
    Format                      : AVC
    Format/Info                 : Advanced Video Codec
    Format profile              : High@L4.1
    Format settings             : CABAC / 4 Ref Frames
    Format settings, CABAC      : Yes
    Format settings, Reference  : 4 frames
    Format settings, GOP        : M=1, N=12
    Codec ID                    : V_MPEG4/ISO/AVC
    Duration                    : 2 h 18 min
    Bit rate mode               : Variable
    Bit rate                    : 29.9 Mb/s
    Maximum bit rate            : 34.0 Mb/s
    Width                       : 1 920 pixels
    Height                      : 1 080 pixels
    Display aspect ratio        : 16:9
    Frame rate mode             : Constant
    Frame rate                  : 23.976 (24000/1001) FPS
    Color space                 : YUV
    Chroma subsampling          : 4:2:0
    Bit depth                   : 8 bits
    Scan type                   : Progressive
    Bits/(Pixel*Frame)          : 0.601
    Stream size                 : 28.8 GiB (84%)
    Title                       : REMUX HD1080p [CinemaniaHDD]
    Default                     : Yes
    Forced                      : Yes

    Audio #1
    ID                          : 2
    Format                      : AC-3
    Format/Info                 : Audio Coding 3
    Commercial name             : Dolby Digital
    Codec ID                    : A_AC3
    Duration                    : 2 h 18 min
    Bit rate mode               : Constant
    Bit rate                    : 640 kb/s
    Channel(s)                  : 6 channels
    Channel layout              : L R C LFE Ls Rs
    Sampling rate               : 48.0 kHz
    Frame rate                  : 31.250 FPS (1536 SPF)
    Compression mode            : Lossy
    Stream size                 : 632 MiB (2%)
    Title                       : Español Latino [CinemaniaHDD]
    Language                    : Spanish
    Service kind                : Complete Main
    Default                     : Yes
    Forced                      : No

    Audio #2
    ID                          : 3
    Format                      : DTS XLL
    Format/Info                 : Digital Theater Systems
    Commercial name             : DTS-HD Master Audio
    Codec ID                    : A_DTS
    Duration                    : 2 h 18 min
    Bit rate mode               : Variable
    Bit rate                    : 5 194 kb/s
    Channel(s)                  : 8 channels
    Channel layout              : C L R LFE Lb Rb Lss Rss
    Sampling rate               : 48.0 kHz
    Frame rate                  : 93.750 FPS (512 SPF)
    Bit depth                   : 24 bits
    Compression mode            : Lossless
    Stream size                 : 5.01 GiB (15%)
    Title                       : Ingles [CinemaniaHDD]
    Language                    : English
    Default                     : No
    Forced                      : No

    Text #1
    ID                          : 4
    Format                      : PGS
    Muxing mode                 : zlib
    Codec ID                    : S_HDMV/PGS
    Codec ID/Info               : Picture based subtitle format used on BDs/HD-DVDs
    Duration                    : 58 min 42 s
    Bit rate                    : 297 b/s
    Count of elements           : 16
    Stream size                 : 128 KiB (0%)
    Title                       : Forzados-PGS [CinemaniaHDD]
    Language                    : Spanish
    Default                     : No
    Forced                      : No

    Text #2
    ID                          : 5
    Format                      : PGS
    Muxing mode                 : zlib
    Codec ID                    : S_HDMV/PGS
    Codec ID/Info               : Picture based subtitle format used on BDs/HD-DVDs
    Duration                    : 2 h 3 min
    Bit rate                    : 25.6 kb/s
    Count of elements           : 2648
    Stream size                 : 22.6 MiB (0%)
    Title                       : Español-PGS [CinemaniaHDD]
    Language                    : Spanish
    Default                     : No
    Forced                      : No

    Text #3
    ID                          : 6
    Format                      : PGS
    Muxing mode                 : zlib
    Codec ID                    : S_HDMV/PGS
    Codec ID/Info               : Picture based subtitle format used on BDs/HD-DVDs
    Duration                    : 2 h 6 min
    Bit rate                    : 34.6 kb/s
    Count of elements           : 3556
    Stream size                 : 31.4 MiB (0%)
    Title                       : Ingles-PGS [CinemaniaHDD]
    Language                    : English
    Default                     : No
    Forced                      : No

    Text #4
    ID                          : 7
    Format                      : UTF-8
    Codec ID                    : S_TEXT/UTF8
    Codec ID/Info               : UTF-8 Plain Text
    Duration                    : 2 h 2 min
    Bit rate                    : 1 b/s
    Count of elements           : 55
    Stream size                 : 1.51 KiB (0%)
    Title                       : Forzados-SRT [CinemaniaHDD]
    Language                    : Spanish
    Default                     : Yes
    Forced                      : Yes

    Text #5
    ID                          : 8
    Format                      : UTF-8
    Codec ID                    : S_TEXT/UTF8
    Codec ID/Info               : UTF-8 Plain Text
    Duration                    : 2 h 0 min
    Bit rate                    : 41 b/s
    Count of elements           : 1302
    Stream size                 : 36.9 KiB (0%)
    Title                       : Español-SRT [CinemaniaHDD]
    Language                    : Spanish
    Default                     : No
    Forced                      : No

    Menu
    00:00:00.000                : Opening Logo
    00:00:09.259                : The Force Awakens
    00:01:43.061                : The First Order Approaches
    00:03:51.856                : Village Raid
    00:06:12.288                : Kylo Ren
    00:09:33.948                : FN-2187
    00:10:43.559                : Rey
    00:12:35.713                : Niima Outpost
    00:13:39.693                : Rey at Home
    00:14:48.220                : Saving BB-8
    00:16:45.921                : Interrogation
    00:18:04.583                : Unkar's Offer
    00:19:21.535                : Jailbreak
    00:21:26.618                : The Fighter Escape
    00:24:03.650                : Marooned on Jakku
    00:26:47.022                : Crossing Paths
    00:29:54.667                : Marketplace Chase
    00:31:49.324                : The Falcon Flies Again
    00:35:51.774                : Introductions
    00:36:40.615                : Kylo Is Updated
    00:37:45.513                : Fixing the Falcon
    00:40:19.250                : "Chewie, We're Home"
    00:43:39.199                : Corellan Standoff
    00:45:29.560                : Rathtar Mayhem
    00:49:22.918                : Supreme Leader
    00:51:19.951                : "It's All True"
    00:54:13.750                : Meeting Maz
    00:59:48.793                : Discussions of Destinies
    01:04:16.060                : Visions in the Force
    01:08:37.238                : Starkiller
    01:11:07.221                : First Order Invasion
    01:15:16.386                : Resistance to the Rescue
    01:16:49.896                : Kylo Finds Rey
    01:19:37.522                : Reunion
    01:20:56.893                : Resistance Base
    01:25:36.172                : Rey Imprisoned
    01:32:12.568                : Resistance Briefing
    01:35:29.014                : Starkiller Landing
    01:36:34.955                : Base Infiltration
    01:39:28.629                : X-Wing Attack
    01:41:29.958                : Rejoining Rey
    01:42:57.504                : Into the Oscillator
    01:45:00.002                : Father and Son
    01:50:33.710                : Dark Forest
    01:53:39.771                : Oscillator Breached
    01:55:22.165                : Forest Duel
    01:58:05.453                : Cataclysm
    02:01:05.591                : Made Whole
    02:02:32.678                : Finding the Master
    02:07:07.578                : End Credits

  • Peso: 34.5 GiB

Sinopsis

Descargar Star Wars: Episodio VII (2015) REMUX 1080p Latino. Treinta años después de la victoria de la Alianza Rebelde sobre la segunda Estrella de la Muerte (hechos narrados en el Episodio VI: El retorno del Jedi), la galaxia está todavía en guerra. Una nueva República se ha constituido, pero una siniestra organización, la Primera Orden, ha resurgido de las cenizas del Imperio Galáctico. A los héroes de antaño, que luchan ahora en la Resistencia, se suman nuevos héroes: Poe Dameron, un piloto de caza, Finn, un desertor de la Primera Orden, Rey, una joven chatarrera, y BB-8, un androide rodante. Todos ellos luchan contra las fuerzas del Mal: el Capitán Phasma, de la Primera Orden, y Kylo Ren, un temible y misterioso personaje que empuña un sable de luz roja.

Nota: Intro Con Textos En Español 🙂

Resubido para VIP!!!

Ficha técnica

Video trailer de la película

Enlaces de descarga

Rip de Bluray

Descargar Star Wars: Episodio VII (2015) REMUX 1080p Latino




Aportes de DPeliculasHDmega la pass es:dpeliculashdmega.org Aportes de CinemaniaHD la pass es:cinemaniahdd.com

Películas relacionadas

descargar Star Wars: Episodio VII (2015) REMUX 1080p Latino Full 1080p 1080p gratis, Star Wars: Episodio VII (2015) REMUX 1080p Latino Full 1080p mega 1 link, Star Wars: Episodio VII (2015) REMUX 1080p Latino Full 1080p pelicula completa, descargar Star Wars: Episodio VII (2015) REMUX 1080p Latino Full 1080p gratis en mega.

Star Wars: Episodio VII (2015) REMUX 1080p Latino pelicula full hd, Star Wars: Episodio VII (2015) REMUX 1080p Latino mega latino, Star Wars: Episodio VII (2015) REMUX 1080p Latino 4k latino, Star Wars: Episodio VII (2015) REMUX 1080p Latino pelicula completa, Star Wars: Episodio VII (2015) REMUX 1080p Latino descargar gratis, descargar Star Wars: Episodio VII (2015) REMUX 1080p Latino pelicula latino, Star Wars: Episodio VII (2015) REMUX 1080p Latino 1 link mega, Star Wars: Episodio VII (2015) REMUX 1080p Latino 1 link google drive, Star Wars: Episodio VII (2015) REMUX 1080p Latino hd 1080p latino.
Comentarios 0