×

¿Problemas para descargar con Mozilla, EDGE? Deshabilita la opción "Abrir vinculos en una pestaña nueva" tal como lo muestra ésta imagen.

Star Wars: Episodio VI (1983) REMUX 1080p Latino

809 vistas

Información de Star Wars: Episodio VI (1983) REMUX 1080p Latino

Datos de la película

  • Calidad: Full 1080p
  • Audio: Español Latino AC3 5.1 BLURAY - Ingles DTS 5.1 BLURAY
  • Subtitulos: Español Latino PGS - Ingles PGS
  • Resolución: 1920x1080p
  • Formato: MKV
  • Codec: H.264
  • Encoder: CinefiloCool
  • Mediainfo: Clic para Mostrar Datos Ver
  • Star Wars Episodio VI (1983) REMUX 1080p Latino-CMHDD.mkv
    Format                      : Matroska
    Format version              : Version 4
    File size                   : 33.4 GiB
    Duration                    : 2 h 14 min
    Overall bit rate mode       : Variable
    Overall bit rate            : 35.5 Mb/s
    Movie name                  : El Retorno Del Jedi (1983) CinemaniaHDD.Net
    Encoded date                : UTC 2022-05-11 04:31:37
    Writing application         : mkvmerge v56.1.0 ('My Friend') 64-bit
    Writing library             : libebml v1.4.2 + libmatroska v1.6.4
    Attachments                 : CINEMANIAHD.png

    Video
    ID                          : 1
    Format                      : AVC
    Format/Info                 : Advanced Video Codec
    Format profile              : High@L4.1
    Format settings             : CABAC / 4 Ref Frames
    Format settings, CABAC      : Yes
    Format settings, Reference  : 4 frames
    Codec ID                    : V_MPEG4/ISO/AVC
    Duration                    : 2 h 14 min
    Bit rate mode               : Variable
    Bit rate                    : 30.5 Mb/s
    Maximum bit rate            : 36.8 Mb/s
    Width                       : 1 920 pixels
    Height                      : 1 080 pixels
    Display aspect ratio        : 16:9
    Frame rate mode             : Constant
    Frame rate                  : 23.976 (24000/1001) FPS
    Color space                 : YUV
    Chroma subsampling          : 4:2:0
    Bit depth                   : 8 bits
    Scan type                   : Progressive
    Bits/(Pixel*Frame)          : 0.613
    Stream size                 : 28.7 GiB (86%)
    Title                       : REMUX HD1080p [CinemaniaHDD]
    Default                     : Yes
    Forced                      : Yes

    Audio #1
    ID                          : 2
    Format                      : AC-3
    Format/Info                 : Audio Coding 3
    Commercial name             : Dolby Digital
    Codec ID                    : A_AC3
    Duration                    : 2 h 14 min
    Bit rate mode               : Constant
    Bit rate                    : 448 kb/s
    Channel(s)                  : 6 channels
    Channel layout              : L R C LFE Ls Rs
    Sampling rate               : 48.0 kHz
    Frame rate                  : 31.250 FPS (1536 SPF)
    Compression mode            : Lossy
    Stream size                 : 432 MiB (1%)
    Title                       : Español Latino [CinemaniaHDD]
    Language                    : Spanish
    Service kind                : Complete Main
    Default                     : Yes
    Forced                      : Yes

    Audio #2
    ID                          : 3
    Format                      : DTS ES XXCH XLL
    Format/Info                 : Digital Theater Systems
    Commercial name             : DTS-HD Master Audio
    Codec ID                    : A_DTS
    Duration                    : 2 h 14 min
    Bit rate mode               : Variable
    Bit rate                    : 4 553 kb/s
    Channel(s)                  : 7 channels
    Channel layout              : C L R Ls Rs LFE Cb
    Sampling rate               : 48.0 kHz
    Frame rate                  : 93.750 FPS (512 SPF)
    Bit depth                   : 24 bits
    Compression mode            : Lossless
    Stream size                 : 4.29 GiB (13%)
    Title                       : Ingles [CinemaniaHDD]
    Language                    : English
    Default                     : No
    Forced                      : No

    Text #1
    ID                          : 4
    Format                      : PGS
    Muxing mode                 : zlib
    Codec ID                    : S_HDMV/PGS
    Codec ID/Info               : Picture based subtitle format used on BDs/HD-DVDs
    Duration                    : 2 h 4 min
    Bit rate                    : 831 b/s
    Count of elements           : 54
    Stream size                 : 760 KiB (0%)
    Title                       : Forzados-PGS [CinemaniaHDD]
    Language                    : Spanish
    Default                     : No
    Forced                      : No

    Text #2
    ID                          : 5
    Format                      : PGS
    Muxing mode                 : zlib
    Codec ID                    : S_HDMV/PGS
    Codec ID/Info               : Picture based subtitle format used on BDs/HD-DVDs
    Duration                    : 2 h 14 min
    Bit rate                    : 28.0 kb/s
    Count of elements           : 1924
    Stream size                 : 27.0 MiB (0%)
    Title                       : Español-PGS [CinemaniaHDD]
    Language                    : Spanish
    Default                     : No
    Forced                      : No

    Text #3
    ID                          : 6
    Format                      : PGS
    Muxing mode                 : zlib
    Codec ID                    : S_HDMV/PGS
    Codec ID/Info               : Picture based subtitle format used on BDs/HD-DVDs
    Duration                    : 2 h 14 min
    Bit rate                    : 36.5 kb/s
    Count of elements           : 3034
    Stream size                 : 35.2 MiB (0%)
    Title                       : Ingles-PGS [CinemaniaHDD]
    Language                    : English
    Default                     : No
    Forced                      : No

    Text #4
    ID                          : 7
    Format                      : UTF-8
    Codec ID                    : S_TEXT/UTF8
    Codec ID/Info               : UTF-8 Plain Text
    Duration                    : 22 min 39 s
    Bit rate                    : 4 b/s
    Count of elements           : 26
    Stream size                 : 839 Bytes (0%)
    Title                       : Forzados-SRT [CinemaniaHDD]
    Language                    : Spanish
    Default                     : Yes
    Forced                      : Yes

    Text #5
    ID                          : 8
    Format                      : UTF-8
    Codec ID                    : S_TEXT/UTF8
    Codec ID/Info               : UTF-8 Plain Text
    Duration                    : 2 h 3 min
    Bit rate                    : 32 b/s
    Count of elements           : 962
    Stream size                 : 29.1 KiB (0%)
    Title                       : Español-SRT [CinemaniaHDD]
    Language                    : Spanish
    Default                     : No
    Forced                      : No

    Menu
    00:00:00.000                : 01. Opening Logos
    00:00:21.188                : 02. Return of the Jedi
    00:01:55.115                : 03. Vader's Unexpected Visit
    00:04:58.465                : 04. Arrival at Jabba's Palace
    00:08:10.907                : 05. A Message and a Gift
    00:12:21.908                : 06. The Max Rebo Band
    00:14:22.028                : 07. The Price for Chewbacca
    00:17:36.013                : 08. Free From the Carbonite
    00:22:10.037                : 09. Enter the Jedi
    00:25:08.340                : 10. "Oh No! The Rancor!"
    00:29:37.359                : 11. On the Sail Barge
    00:31:29.012                : 12. The Sarlacc Pit
    00:37:44.471                : 13. The Emperor Arrives
    00:39:32.245                : 14. Yoda's Twilight
    00:45:17.423                : 15. A Certain Point of View
    00:48:23.400                : 16. Rebel Briefing
    00:51:36.010                : 17. Lending the Falcon
    00:53:32.668                : 18. The Emperor's Instructions
    00:54:25.095                : 19. Flying Casual
    00:56:55.245                : 20. Arrival on Endor
    00:58:43.812                : 21. Speeder Bike Chase
    01:02:41.716                : 22. Leia Meets Wicket
    01:06:19.267                : 23. Vader's Report
    01:07:47.480                : 24. An Ewok Trap
    01:12:01.108                : 25. The Golden God
    01:15:52.673                : 26. Campfire Stories
    01:18:14.815                : 27. Brother and Sister
    01:22:30.404                : 28. Luke Surrenders
    01:26:06.870                : 29. Rebel Recon
    01:26:52.082                : 30. The Alliance Fleet
    01:27:50.891                : 31. Back Door
    01:30:04.524                : 32. Luke and the Emperor
    01:33:19.135                : 33. "It's a Trap!"
    01:36:41.421                : 34. Ewok Attack
    01:40:25.186                : 35. Fully Operational
    01:42:23.179                : 36. The Battle Rages
    01:44:27.803                : 37. The Dark Side Beckons
    01:45:26.946                : 38. The Ewoks Turn the Tide
    01:48:42.433                : 39. Father vs. Son
    01:50:40.634                : 40. Taking the Bunker
    01:51:37.107                : 41. A Jedi's Fury
    01:54:37.120                : 42. The Shield is Down
    01:55:07.859                : 43. Force Lightning
    01:55:57.492                : 44. Vader's Redemption
    01:57:40.178                : 45. Into the Death Star
    01:59:34.167                : 46. Anakin Unmasked
    02:01:58.853                : 47. Death Star Destroyed
    02:04:50.566                : 48. Funeral Pyre
    02:05:27.437                : 49. Celebration
    02:07:56.043                : 50. End Credits

  • Peso: 33.4 GiB

Sinopsis

Descargar Star Wars: Episodio VI (1983) REMUX 1080p Latino. Luke Skywalker y la princesa Leia deben viajar a Tatooine para liberar a Han Solo. Para conseguirlo, deben infiltrarse en la peligrosa guarida de Jabba the Hutt, el gángster más temido de la galaxia. Una vez reunidos, el equipo recluta a tribus de Ewoks para combatir a las fuerzas imperiales en los bosques de la luna de Endor. Mientras tanto, el Emperador y Darth Vader conspiran para convertir a Luke al lado oscuro, pero el joven Skywalker, por su parte, está decidido a reavivar el espíritu del Jedi en su padre. La guerra civil galáctica culmina en un último enfrentamiento entre las fuerzas rebeldes unificadas y una segunda Estrella de la Muerte, indefensa e incompleta, en una batalla que decidirá el destino de la galaxia.

Nota: Intro Con Textos En Español 🙂

Resubido para VIP!!!

Ficha técnica

Video trailer de la película

Enlaces de descarga

Rip de Bluray

Descargar Star Wars: Episodio VI (1983) REMUX 1080p Latino




Aportes de DPeliculasHDmega la pass es:dpeliculashdmega.org Aportes de CinemaniaHD la pass es:cinemaniahdd.com
Guardado en : Acción , Aventura , Ciencia ficción , Remux

Películas relacionadas

descargar Star Wars: Episodio VI (1983) REMUX 1080p Latino Full 1080p 1080p gratis, Star Wars: Episodio VI (1983) REMUX 1080p Latino Full 1080p mega 1 link, Star Wars: Episodio VI (1983) REMUX 1080p Latino Full 1080p pelicula completa, descargar Star Wars: Episodio VI (1983) REMUX 1080p Latino Full 1080p gratis en mega.

Star Wars: Episodio VI (1983) REMUX 1080p Latino pelicula full hd, Star Wars: Episodio VI (1983) REMUX 1080p Latino mega latino, Star Wars: Episodio VI (1983) REMUX 1080p Latino 4k latino, Star Wars: Episodio VI (1983) REMUX 1080p Latino pelicula completa, Star Wars: Episodio VI (1983) REMUX 1080p Latino descargar gratis, descargar Star Wars: Episodio VI (1983) REMUX 1080p Latino pelicula latino, Star Wars: Episodio VI (1983) REMUX 1080p Latino 1 link mega, Star Wars: Episodio VI (1983) REMUX 1080p Latino 1 link google drive, Star Wars: Episodio VI (1983) REMUX 1080p Latino hd 1080p latino.
Comentarios 1
  • ocpgaiden - 18 junio, 2020

    Gracias por Star Wars el regreso del jedi bdremux, saludos