×

¿Problemas para descargar con Mozilla, EDGE? Deshabilita la opción "Abrir vinculos en una pestaña nueva" tal como lo muestra ésta imagen.

Star Wars: Episodio V (1980) REMUX 1080p Latino

709 vistas

Información de Star Wars: Episodio V (1980) REMUX 1080p Latino

Datos de la película

  • Calidad: Full 1080p
  • Audio: Español Latino AC3 5.1 BLURAY - Ingles DTS 5.1 BLURAY
  • Subtitulos: Español Latino PGS - Ingles PGS
  • Resolución: 1920x1080p
  • Formato: MKV
  • Codec: H.264
  • Encoder: CinefiloCool
  • Mediainfo: Clic para Mostrar Datos Ver
  • Star Wars Episodio V (1980) REMUX 1080p Latino-CMHDD.mkv
    Format                      : Matroska
    Format version              : Version 4
    File size                   : 33.2 GiB
    Duration                    : 2 h 7 min
    Overall bit rate mode       : Variable
    Overall bit rate            : 37.3 Mb/s
    Movie name                  : El Imperio Contraataca (1980) CinemaniaHDD.Net
    Encoded date                : UTC 2022-05-08 08:34:21
    Writing application         : mkvmerge v56.1.0 ('My Friend') 64-bit
    Writing library             : libebml v1.4.2 + libmatroska v1.6.4
    Attachments                 : CINEMANIAHD.png

    Video
    ID                          : 1
    Format                      : AVC
    Format/Info                 : Advanced Video Codec
    Format profile              : High@L4.1
    Format settings             : CABAC / 4 Ref Frames
    Format settings, CABAC      : Yes
    Format settings, Reference  : 4 frames
    Codec ID                    : V_MPEG4/ISO/AVC
    Duration                    : 2 h 7 min
    Bit rate mode               : Variable
    Bit rate                    : 32.2 Mb/s
    Maximum bit rate            : 36.6 Mb/s
    Width                       : 1 920 pixels
    Height                      : 1 080 pixels
    Display aspect ratio        : 16:9
    Frame rate mode             : Constant
    Frame rate                  : 23.976 (24000/1001) FPS
    Color space                 : YUV
    Chroma subsampling          : 4:2:0
    Bit depth                   : 8 bits
    Scan type                   : Progressive
    Bits/(Pixel*Frame)          : 0.648
    Stream size                 : 28.7 GiB (86%)
    Title                       : REMUX HD1080p [CinemaniaHDD]
    Default                     : Yes
    Forced                      : Yes

    Audio #1
    ID                          : 2
    Format                      : AC-3
    Format/Info                 : Audio Coding 3
    Commercial name             : Dolby Digital
    Codec ID                    : A_AC3
    Duration                    : 2 h 7 min
    Bit rate mode               : Constant
    Bit rate                    : 448 kb/s
    Channel(s)                  : 6 channels
    Channel layout              : L R C LFE Ls Rs
    Sampling rate               : 48.0 kHz
    Frame rate                  : 31.250 FPS (1536 SPF)
    Compression mode            : Lossy
    Stream size                 : 408 MiB (1%)
    Title                       : Español Latino [CinemaniaHDD]
    Language                    : Spanish
    Service kind                : Complete Main
    Default                     : Yes
    Forced                      : Yes

    Audio #2
    ID                          : 3
    Format                      : DTS ES XXCH XLL
    Format/Info                 : Digital Theater Systems
    Commercial name             : DTS-HD Master Audio
    Codec ID                    : A_DTS
    Duration                    : 2 h 7 min
    Bit rate mode               : Variable
    Bit rate                    : 4 564 kb/s
    Channel(s)                  : 7 channels
    Channel layout              : C L R Ls Rs LFE Cb
    Sampling rate               : 48.0 kHz
    Frame rate                  : 93.750 FPS (512 SPF)
    Bit depth                   : 24 bits
    Compression mode            : Lossless
    Stream size                 : 4.06 GiB (12%)
    Title                       : Ingles [CinemaniaHDD]
    Language                    : English
    Default                     : No
    Forced                      : No

    Text #1
    ID                          : 4
    Format                      : PGS
    Muxing mode                 : zlib
    Codec ID                    : S_HDMV/PGS
    Codec ID/Info               : Picture based subtitle format used on BDs/HD-DVDs
    Duration                    : 2 h 7 min
    Bit rate                    : 35.0 kb/s
    Count of elements           : 2206
    Stream size                 : 31.9 MiB (0%)
    Title                       : Español-PGS [CinemaniaHDD]
    Language                    : Spanish
    Default                     : No
    Forced                      : No

    Text #2
    ID                          : 5
    Format                      : PGS
    Muxing mode                 : zlib
    Codec ID                    : S_HDMV/PGS
    Codec ID/Info               : Picture based subtitle format used on BDs/HD-DVDs
    Duration                    : 2 h 7 min
    Bit rate                    : 42.4 kb/s
    Count of elements           : 3106
    Stream size                 : 38.6 MiB (0%)
    Title                       : Ingles-PGS [CinemaniaHDD]
    Language                    : English
    Default                     : No
    Forced                      : No

    Text #3
    ID                          : 6
    Format                      : UTF-8
    Codec ID                    : S_TEXT/UTF8
    Codec ID/Info               : UTF-8 Plain Text
    Duration                    : 1 h 57 min
    Bit rate                    : 38 b/s
    Count of elements           : 1099
    Stream size                 : 32.8 KiB (0%)
    Title                       : Español-SRT [CinemaniaHDD]
    Language                    : Spanish
    Default                     : No
    Forced                      : No

    Menu
    00:00:00.000                : Opening Logos
    00:00:21.104                : The Empire Strikes Back
    00:01:54.865                : Ice Planet Hoth
    00:04:15.839                : The Rebel Base
    00:08:19.249                : Escape From the Wampa
    00:10:15.949                : Closing the Doors
    00:12:57.735                : Obi-Wan's Instructions
    00:15:13.538                : Search Party
    00:16:29.697                : Luke's Recovery
    00:18:19.974                : Imperial Probe Droid
    00:19:45.393                : The Imperial Fleet
    00:21:22.698                : Preparing for Battle
    00:23:57.728                : First Transport Away
    00:25:49.423                : Battle in the Snow
    00:29:29.351                : The Tide Turns
    00:31:29.221                : Rebels in Retreat
    00:33:37.682                : Escape Aboard the Falcon
    00:35:55.153                : Leaving for Dagobah
    00:36:51.251                : The Empire in Pursuit
    00:38:33.561                : Asteroid Field
    00:40:36.726                : Crash Landing on Dagobah
    00:44:20.074                : Hunting the Falcon
    00:46:08.391                : "Found Someone, You Have"
    00:50:13.385                : Interrupted Kiss
    00:52:16.633                : The Emperor's Message
    00:54:20.257                : Yoda's Hut
    00:57:40.290                : "This is No Cave"
    01:00:57.946                : Jedi Training
    01:03:42.777                : Failure at the Cave
    01:05:46.109                : Bounty Hunters
    01:08:12.171                : There is No Try
    01:13:24.233                : Out With the Garbage
    01:16:39.887                : Seeing the Future
    01:18:24.116                : City in the Clouds
    01:19:45.864                : Meeting Lando
    01:22:55.929                : Leaving Dagobah
    01:25:38.550                : Leia's Concerns
    01:27:51.266                : Imperial Surprise
    01:30:28.673                : The Deal Gets Worse
    01:34:39.799                : Carbon Freeze
    01:38:28.903                : Luke Enters the Trap
    01:40:26.145                : Confronting the Dark Lord
    01:41:46.100                : Lando's Second Surprise
    01:43:51.434                : Lightsaber Duel
    01:47:02.541                : Escape From Cloud City
    01:49:21.472                : Vader's Revelation
    01:53:41.690                : Falcon to the Rescue
    01:56:14.843                : The Empire Closes In
    01:59:46.596                : The Rebel Fleet
    02:01:58.228                : End Credits

  • Peso: 33.2 GiB

Sinopsis

Descargar Star Wars: Episodio V (1980) REMUX 1080p Latino. Tras un ataque sorpresa de las tropas imperiales a las bases camufladas de la alianza rebelde, Luke Skywalker, en compañía de R2D2, parte hacia el planeta Dagobah en busca de Yoda, el último maestro Jedi, para que le enseñe los secretos de la Fuerza. Mientras, Han Solo, la princesa Leia, Chewbacca, y C3PO esquivan a las fuerzas imperiales y piden refugio al antiguo propietario del Halcón Milenario, Lando Calrissian, en la ciudad minera de Bespin, donde les prepara una trampa urdida por Darth Vader.

Nota: Intro Con Textos En Español 🙂

Resubido para VIP!!!

Ficha técnica

Video trailer de la película

Enlaces de descarga

Rip de Bluray

Descargar Star Wars: Episodio V (1980) REMUX 1080p Latino




Aportes de DPeliculasHDmega la pass es:dpeliculashdmega.org Aportes de CinemaniaHD la pass es:cinemaniahdd.com
Guardado en : Acción , Aventura , Ciencia ficción , Remux

Películas relacionadas

descargar Star Wars: Episodio V (1980) REMUX 1080p Latino Full 1080p 1080p gratis, Star Wars: Episodio V (1980) REMUX 1080p Latino Full 1080p mega 1 link, Star Wars: Episodio V (1980) REMUX 1080p Latino Full 1080p pelicula completa, descargar Star Wars: Episodio V (1980) REMUX 1080p Latino Full 1080p gratis en mega.

Star Wars: Episodio V (1980) REMUX 1080p Latino pelicula full hd, Star Wars: Episodio V (1980) REMUX 1080p Latino mega latino, Star Wars: Episodio V (1980) REMUX 1080p Latino 4k latino, Star Wars: Episodio V (1980) REMUX 1080p Latino pelicula completa, Star Wars: Episodio V (1980) REMUX 1080p Latino descargar gratis, descargar Star Wars: Episodio V (1980) REMUX 1080p Latino pelicula latino, Star Wars: Episodio V (1980) REMUX 1080p Latino 1 link mega, Star Wars: Episodio V (1980) REMUX 1080p Latino 1 link google drive, Star Wars: Episodio V (1980) REMUX 1080p Latino hd 1080p latino.
Comentarios 0