×

¿Problemas para descargar con Mozilla, EDGE? Deshabilita la opción "Abrir vinculos en una pestaña nueva" tal como lo muestra ésta imagen.

Star Wars: Episodio V (1980) 4K UHD HDR Webrip Latino

1.629 vistas

Información de Star Wars: Episodio V (1980) 4K UHD HDR Webrip Latino

Datos de la película

  • Calidad: WEBDL
  • Audio: Español Latino AC3 5.1 BLURAY - Ingles DTS 5.1 BLURAY
  • Subtitulos: Español Latino PGS - Ingles PGS
  • Resolución: 3840x1608p
  • Formato: MKV
  • Codec: HEVC
  • Encoder: CinefiloCool
  • Mediainfo: Clic para Mostrar Datos Ver
  • Star Wars Episodio V (1980) UHD HDR Webrip Latino-CMHDD.mkv
    Format                      : Matroska
    Format version              : Version 4
    File size                   : 18.4 GiB
    Duration                    : 2 h 7 min
    Overall bit rate            : 20.7 Mb/s
    Movie name                  : CinemaniaHDD.Net
    Encoded date                : UTC 2020-01-06 17:32:47
    Writing application         : mkvmerge v38.0.0 ('The Silent Type') 64-bit
    Writing library             : libebml v1.3.9 + libmatroska v1.5.2
    Attachments                 : CINEMANIAHD.png

    Video
    ID                          : 1
    Format                      : HEVC
    Format/Info                 : High Efficiency Video Coding
    Format profile              : Main 10@L5@Main
    Codec ID                    : V_MPEGH/ISO/HEVC
    Duration                    : 2 h 7 min
    Bit rate                    : 18.7 Mb/s
    Width                       : 3 840 pixels
    Height                      : 1 608 pixels
    Display aspect ratio        : 2.40:1
    Frame rate mode             : Constant
    Frame rate                  : 23.976 (24000/1001) FPS
    Color space                 : YUV
    Chroma subsampling          : 4:2:0
    Bit depth                   : 10 bits
    Bits/(Pixel*Frame)          : 0.126
    Stream size                 : 16.6 GiB (90%)
    Title                       : 2160p HDR [Web]
    Writing library             : x265 3.2+9-971180b100f8:[Windows][MSVC 1923][64 bit] 10bit
    Encoding settings           : cpuid=1111039 / frame-threads=4 / numa-pools=28,0 / wpp / no-pmode / no-pme / no-psnr / no-ssim / log-level=2 / input-csp=1 / input-res=3840x1608 / interlace=0 / total-frames=0 / level-idc=0 / high-tier=1 / uhd-bd=0 / ref=5 / no-allow-non-conformance / repeat-headers / annexb / no-aud / no-hrd / info / hash=0 / no-temporal-layers / open-gop / min-keyint=23 / keyint=250 / gop-lookahead=0 / bframes=8 / b-adapt=2 / b-pyramid / bframe-bias=0 / rc-lookahead=40 / lookahead-slices=0 / scenecut=40 / radl=0 / no-splice / no-intra-refresh / ctu=64 / min-cu-size=8 / no-rect / no-amp / max-tu-size=32 / tu-inter-depth=3 / tu-intra-depth=3 / limit-tu=0 / rdoq-level=1 / dynamic-rd=0.00 / no-ssim-rd / signhide / no-tskip / nr-intra=0 / nr-inter=0 / no-constrained-intra / strong-intra-smoothing / max-merge=5 / limit-refs=0 / no-limit-modes / me=3 / subme=4 / merange=57 / temporal-mvp / no-frame-dup / no-hme / weightp / weightb / no-analyze-src-pics / deblock=0:0 / no-sao / no-sao-non-deblock / rd=6 / selective-sao=0 / no-early-skip / rskip / no-fast-intra / no-tskip-fast / no-cu-lossless / b-intra / no-splitrd-skip / rdpenalty=0 / psy-rd=4.00 / psy-rdoq=8.00 / no-rd-refine / no-lossless / cbqpoffs=0 / crqpoffs=0 / rc=crf / crf=15.0 / qcomp=0.60 / qpstep=4 / stats-write=0 / stats-read=0 / ipratio=1.40 / pbratio=1.30 / aq-mode=2 / aq-strength=1.00 / cutree / zone-count=0 / no-strict-cbr / qg-size=32 / no-rc-grain / qpmax=69 / qpmin=0 / no-const-vbv / sar=0 / overscan=0 / videoformat=5 / range=0 / colorprim=9 / transfer=16 / colormatrix=9 / chromaloc=0 / display-window=0 / cll=0,0 / min-luma=0 / max-luma=1023 / log2-max-poc-lsb=8 / vui-timing-info / vui-hrd-info / slices=1 / no-opt-qp-pps / no-opt-ref-list-length-pps / no-multi-pass-opt-rps / scenecut-bias=0.05 / no-opt-cu-delta-qp / no-aq-motion / hdr / hdr-opt / no-dhdr10-opt / no-idr-recovery-sei / analysis-reuse-level=5 / scale-factor=0 / refine-intra=0 / refine-inter=0 / refine-mv=1 / refine-ctu-distortion=0 / no-limit-sao / ctu-info=0 / no-lowpass-dct / refine-analysis-type=0 / copy-pic=1 / max-ausize-factor=1.0 / no-dynamic-refine / no-single-sei / no-hevc-aq / no-svt / no-field / qp-adaptation-range=1.00
    Default                     : Yes
    Forced                      : Yes
    Color range                 : Limited
    Color primaries             : BT.2020
    Transfer characteristics    : PQ
    Matrix coefficients         : BT.2020 non-constant

    Audio #1
    ID                          : 2
    Format                      : AC-3
    Format/Info                 : Audio Coding 3
    Commercial name             : Dolby Digital
    Codec ID                    : A_AC3
    Duration                    : 2 h 7 min
    Bit rate mode               : Constant
    Bit rate                    : 448 kb/s
    Channel(s)                  : 6 channels
    Channel layout              : L R C LFE Ls Rs
    Sampling rate               : 48.0 kHz
    Frame rate                  : 31.250 FPS (1536 SPF)
    Bit depth                   : 16 bits
    Compression mode            : Lossy
    Stream size                 : 408 MiB (2%)
    Title                       : AC3_5.1_Bluray_Esp
    Language                    : Spanish
    Service kind                : Complete Main
    Default                     : Yes
    Forced                      : Yes

    Audio #2
    ID                          : 3
    Format                      : DTS ES XXCH
    Format/Info                 : Digital Theater Systems
    Commercial name             : DTS-ES Discrete
    Codec ID                    : A_DTS
    Duration                    : 2 h 7 min
    Bit rate mode               : Constant
    Bit rate                    : 1 509 kb/s
    Channel(s)                  : 6 channels
    Channel(s)_Original         : 7 channels
    Channel layout              : C L R Ls Rs Cb LFE
    Sampling rate               : 48.0 kHz
    Frame rate                  : 93.750 FPS (512 SPF)
    Bit depth                   : 24 bits
    Compression mode            : Lossy
    Stream size                 : 1.34 GiB (7%)
    Title                       : DTS_5.1_Bluray_Eng
    Language                    : English
    Default                     : No
    Forced                      : No

    Text #1
    ID                          : 4
    Format                      : PGS
    Muxing mode                 : zlib
    Codec ID                    : S_HDMV/PGS
    Codec ID/Info               : Picture based subtitle format used on BDs/HD-DVDs
    Duration                    : 2 h 7 min
    Bit rate                    : 35.0 kb/s
    Count of elements           : 2206
    Stream size                 : 31.9 MiB (0%)
    Title                       : Sub_Esp [PGS]
    Language                    : Spanish
    Default                     : No
    Forced                      : No

    Text #2
    ID                          : 5
    Format                      : PGS
    Muxing mode                 : zlib
    Codec ID                    : S_HDMV/PGS
    Codec ID/Info               : Picture based subtitle format used on BDs/HD-DVDs
    Duration                    : 2 h 7 min
    Bit rate                    : 39.0 kb/s
    Count of elements           : 2270
    Stream size                 : 35.5 MiB (0%)
    Title                       : Sub_Eng [PGS]
    Language                    : English
    Default                     : No
    Forced                      : No

    Text #3
    ID                          : 6
    Format                      : UTF-8
    Codec ID                    : S_TEXT/UTF8
    Codec ID/Info               : UTF-8 Plain Text
    Duration                    : 1 min 6 s
    Bit rate                    : 76 b/s
    Count of elements           : 13
    Stream size                 : 636 Bytes (0%)
    Title                       : Sub_Forzados
    Language                    : Spanish
    Default                     : Yes
    Forced                      : Yes

    Text #4
    ID                          : 7
    Format                      : UTF-8
    Codec ID                    : S_TEXT/UTF8
    Codec ID/Info               : UTF-8 Plain Text
    Duration                    : 2 h 0 min
    Bit rate                    : 38 b/s
    Count of elements           : 1112
    Stream size                 : 33.5 KiB (0%)
    Title                       : Sub_Esp
    Language                    : Spanish
    Default                     : No
    Forced                      : No

    Menu
    00:00:00.000                : en:Opening Logos
    00:00:21.104                : en:The Empire Strikes Back
    00:01:54.865                : en:Ice Planet Hoth
    00:04:15.839                : en:The Rebel Base
    00:08:19.249                : en:Escape From the Wampa
    00:10:15.949                : en:Closing the Doors
    00:12:57.735                : en:Obi-Wan's Instructions
    00:15:13.538                : en:Search Party
    00:16:29.697                : en:Luke's Recovery
    00:18:19.974                : en:Imperial Probe Droid
    00:19:45.393                : en:The Imperial Fleet
    00:21:22.698                : en:Preparing for Battle
    00:23:57.728                : en:First Transport Away
    00:25:49.423                : en:Battle in the Snow
    00:29:29.351                : en:The Tide Turns
    00:31:29.221                : en:Rebels in Retreat
    00:33:37.682                : en:Escape Aboard the Falcon
    00:35:55.153                : en:Leaving for Dagobah
    00:36:51.251                : en:The Empire in Pursuit
    00:38:33.561                : en:Asteroid Field
    00:40:36.726                : en:Crash Landing on Dagobah
    00:44:20.074                : en:Hunting the Falcon
    00:46:08.391                : en:"Found Someone, You Have"
    00:50:13.385                : en:Interrupted Kiss
    00:52:16.633                : en:The Emperor's Message
    00:54:20.257                : en:Yoda's Hut
    00:57:40.290                : en:"This is No Cave"
    01:00:57.946                : en:Jedi Training
    01:03:42.777                : en:Failure at the Cave
    01:05:46.109                : en:Bounty Hunters
    01:08:12.171                : en:There is No Try
    01:13:24.233                : en:Out With the Garbage
    01:16:39.887                : en:Seeing the Future
    01:18:24.116                : en:City in the Clouds
    01:19:45.864                : en:Meeting Lando
    01:22:55.929                : en:Leaving Dagobah
    01:25:38.550                : en:Leia's Concerns
    01:27:51.266                : en:Imperial Surprise
    01:30:28.673                : en:The Deal Gets Worse
    01:34:39.799                : en:Carbon Freeze
    01:38:28.903                : en:Luke Enters the Trap
    01:40:26.145                : en:Confronting the Dark Lord
    01:41:46.100                : en:Lando's Second Surprise
    01:43:51.434                : en:Lightsaber Duel
    01:47:02.541                : en:Escape From Cloud City
    01:49:21.472                : en:Vader's Revelation
    01:53:41.690                : en:Falcon to the Rescue
    01:56:14.843                : en:The Empire Closes In
    01:59:46.596                : en:The Rebel Fleet
    02:01:58.228                : en:End Credits

  • Peso: 18.4 GiB

Sinopsis

Descargar Star Wars: Episodio V (1980) 4K UHD HDR Webrip Latino. Tras un ataque sorpresa de las tropas imperiales a las bases camufladas de la alianza rebelde, Luke Skywalker, en compañía de R2D2, parte hacia el planeta Dagobah en busca de Yoda, el último maestro Jedi, para que le enseñe los secretos de la Fuerza. Mientras, Han Solo, la princesa Leia, Chewbacca, y C3PO esquivan a las fuerzas imperiales y piden refugio al antiguo propietario del Halcón Milenario, Lando Calrissian, en la ciudad minera de Bespin, donde les prepara una trampa urdida por Darth Vader.

Ficha técnica

Video trailer de la película

Enlaces de descarga

Rip de Bluray

Descargar Star Wars: Episodio V (1980) 4K UHD HDR Webrip Latino




Aportes de DPeliculasHDmega la pass es:dpeliculashdmega.org Aportes de CinemaniaHD la pass es:cinemaniahdd.com

Películas relacionadas

descargar Star Wars: Episodio V (1980) 4K UHD HDR Webrip Latino WEBDL 1080p gratis, Star Wars: Episodio V (1980) 4K UHD HDR Webrip Latino WEBDL mega 1 link, Star Wars: Episodio V (1980) 4K UHD HDR Webrip Latino WEBDL pelicula completa, descargar Star Wars: Episodio V (1980) 4K UHD HDR Webrip Latino WEBDL gratis en mega.

Star Wars: Episodio V (1980) 4K UHD HDR Webrip Latino pelicula full hd, Star Wars: Episodio V (1980) 4K UHD HDR Webrip Latino mega latino, Star Wars: Episodio V (1980) 4K UHD HDR Webrip Latino 4k latino, Star Wars: Episodio V (1980) 4K UHD HDR Webrip Latino pelicula completa, Star Wars: Episodio V (1980) 4K UHD HDR Webrip Latino descargar gratis, descargar Star Wars: Episodio V (1980) 4K UHD HDR Webrip Latino pelicula latino, Star Wars: Episodio V (1980) 4K UHD HDR Webrip Latino 1 link mega, Star Wars: Episodio V (1980) 4K UHD HDR Webrip Latino 1 link google drive, Star Wars: Episodio V (1980) 4K UHD HDR Webrip Latino hd 1080p latino.
Comentarios 0