×

¿Problemas para descargar con Mozilla, EDGE? Deshabilita la opción "Abrir vinculos en una pestaña nueva" tal como lo muestra ésta imagen.

Star Wars: Episodio IX (2019) REMUX 1080p Latino

2.694 vistas

Información de Star Wars: Episodio IX (2019) REMUX 1080p Latino

Datos de la película

  • Calidad: Full 1080p
  • Audio: Español Latino AC3 5.1 BLURAY - Ingles DTS-HD Master 7.1 BLURAY
  • Subtitulos: Español Latino PGS - Ingles PGS
  • Resolución: 1920x1080p
  • Formato: MKV
  • Codec: H.264
  • Encoder: CinefiloCool
  • Mediainfo: Clic para Mostrar Datos Ver
  • Star Wars Episodio IX (2019) REMUX 1080p Latino-CMHDD.mkv
    Format                      : Matroska
    Format version              : Version 4
    File size                   : 39.7 GiB
    Duration                    : 2 h 21 min
    Overall bit rate mode       : Variable
    Overall bit rate            : 40.0 Mb/s
    Movie name                  : El Ascenso De Skywalker (2019) CinemaniaHDD.Net
    Encoded date                : UTC 2022-05-09 04:13:42
    Writing application         : mkvmerge v56.1.0 ('My Friend') 64-bit
    Writing library             : libebml v1.4.2 + libmatroska v1.6.4
    Attachments                 : CINEMANIAHD.png

    Video
    ID                          : 1
    Format                      : AVC
    Format/Info                 : Advanced Video Codec
    Format profile              : High@L4.1
    Format settings             : CABAC / 4 Ref Frames
    Format settings, CABAC      : Yes
    Format settings, Reference  : 4 frames
    Codec ID                    : V_MPEG4/ISO/AVC
    Duration                    : 2 h 21 min
    Bit rate mode               : Variable
    Bit rate                    : 33.3 Mb/s
    Maximum bit rate            : 37.2 Mb/s
    Width                       : 1 920 pixels
    Height                      : 1 080 pixels
    Display aspect ratio        : 16:9
    Frame rate mode             : Constant
    Frame rate                  : 23.976 (24000/1001) FPS
    Color space                 : YUV
    Chroma subsampling          : 4:2:0
    Bit depth                   : 8 bits
    Scan type                   : Progressive
    Bits/(Pixel*Frame)          : 0.670
    Stream size                 : 33.0 GiB (83%)
    Title                       : REMUX HD1080p [CinemaniaHDD]
    Default                     : Yes
    Forced                      : Yes

    Audio #1
    ID                          : 2
    Format                      : AC-3
    Format/Info                 : Audio Coding 3
    Commercial name             : Dolby Digital
    Codec ID                    : A_AC3
    Duration                    : 2 h 21 min
    Bit rate mode               : Constant
    Bit rate                    : 640 kb/s
    Channel(s)                  : 6 channels
    Channel layout              : L R C LFE Ls Rs
    Sampling rate               : 48.0 kHz
    Frame rate                  : 31.250 FPS (1536 SPF)
    Compression mode            : Lossy
    Stream size                 : 649 MiB (2%)
    Title                       : Español Latino AC3 [CinemaniaHDD]
    Language                    : Spanish
    Service kind                : Complete Main
    Default                     : Yes
    Forced                      : Yes

    Audio #2
    ID                          : 3
    Format                      : E-AC-3
    Format/Info                 : Enhanced AC-3
    Commercial name             : Dolby Digital Plus
    Format profile              : Blu-ray Disc
    Codec ID                    : A_EAC3
    Duration                    : 2 h 21 min
    Bit rate mode               : Constant
    Bit rate                    : 1 024 kb/s
    Channel(s)                  : 8 channels
    Channel layout              : L R C LFE Ls Rs Lb Rb
    Sampling rate               : 48.0 kHz
    Frame rate                  : 31.250 FPS (1536 SPF)
    Compression mode            : Lossy
    Stream size                 : 1.01 GiB (3%)
    Title                       : Español Latino EAC3 7.1 [CinemaniaHDD]
    Language                    : Spanish
    Service kind                : Complete Main
    Default                     : No
    Forced                      : No

    Audio #3
    ID                          : 4
    Format                      : DTS XLL
    Format/Info                 : Digital Theater Systems
    Commercial name             : DTS-HD Master Audio
    Codec ID                    : A_DTS
    Duration                    : 2 h 21 min
    Bit rate mode               : Variable
    Bit rate                    : 4 997 kb/s
    Channel(s)                  : 8 channels
    Channel layout              : C L R LFE Lb Rb Lss Rss
    Sampling rate               : 48.0 kHz
    Frame rate                  : 93.750 FPS (512 SPF)
    Bit depth                   : 24 bits
    Compression mode            : Lossless
    Stream size                 : 4.95 GiB (12%)
    Title                       : Ingles [CinemaniaHDD]
    Language                    : English
    Default                     : No
    Forced                      : No

    Text #1
    ID                          : 5
    Format                      : PGS
    Muxing mode                 : zlib
    Codec ID                    : S_HDMV/PGS
    Codec ID/Info               : Picture based subtitle format used on BDs/HD-DVDs
    Duration                    : 1 h 37 min
    Bit rate                    : 23 b/s
    Count of elements           : 4
    Stream size                 : 16.7 KiB (0%)
    Title                       : Forzados-PGS [CinemaniaHDD]
    Language                    : Spanish
    Default                     : No
    Forced                      : No

    Text #2
    ID                          : 6
    Format                      : PGS
    Muxing mode                 : zlib
    Codec ID                    : S_HDMV/PGS
    Codec ID/Info               : Picture based subtitle format used on BDs/HD-DVDs
    Duration                    : 2 h 11 min
    Bit rate                    : 28.2 kb/s
    Count of elements           : 2900
    Stream size                 : 26.6 MiB (0%)
    Title                       : Español-PGS [CinemaniaHDD]
    Language                    : Spanish
    Default                     : No
    Forced                      : No

    Text #3
    ID                          : 7
    Format                      : PGS
    Muxing mode                 : zlib
    Codec ID                    : S_HDMV/PGS
    Codec ID/Info               : Picture based subtitle format used on BDs/HD-DVDs
    Duration                    : 2 h 11 min
    Bit rate                    : 37.4 kb/s
    Count of elements           : 3790
    Stream size                 : 35.2 MiB (0%)
    Title                       : Ingles-PGS [CinemaniaHDD]
    Language                    : English
    Default                     : No
    Forced                      : No

    Text #4
    ID                          : 8
    Format                      : UTF-8
    Codec ID                    : S_TEXT/UTF8
    Codec ID/Info               : UTF-8 Plain Text
    Duration                    : 1 s 585 ms
    Bit rate                    : 116 b/s
    Count of elements           : 1
    Stream size                 : 23.0 Bytes (0%)
    Title                       : Forzados-SRT [CinemaniaHDD]
    Language                    : Spanish
    Default                     : Yes
    Forced                      : Yes

    Text #5
    ID                          : 9
    Format                      : UTF-8
    Codec ID                    : S_TEXT/UTF8
    Codec ID/Info               : UTF-8 Plain Text
    Duration                    : 2 h 11 min
    Bit rate                    : 42 b/s
    Count of elements           : 1450
    Stream size                 : 40.9 KiB (0%)
    Title                       : Español-SRT [CinemaniaHDD]
    Language                    : Spanish
    Default                     : No
    Forced                      : No

    Menu
    00:00:00.000                : Opening Logo
    00:00:08.341                : The Rise of Skywalker
    00:01:40.099                : Kylo Ren's Quest
    00:03:46.975                : Exegol
    00:06:42.066                : Millennium Falcon Mission
    00:08:25.835                : Pursuit of the Falcon
    00:10:04.057                : Rey's Training Course
    00:12:47.302                : General Leia
    00:13:53.158                : The Falcon's Back
    00:15:16.574                : Spy Message
    00:17:12.355                : “We Go Together"
    00:19:24.194                : Ren Reforged
    00:21:27.733                : Pasaana Festival
    00:25:26.847                : General Calrissian
    00:27:14.037                : Speeder Chase
    00:30:40.701                : Buried Secrets
    00:35:48.216                : Power Unleashed
    00:41:36.897                : Aftermath
    00:43:14.411                : "In This Till The End"
    00:45:27.501                : Meeting Zorii
    00:48:23.718                : Babu Frik's Workshop
    00:54:36.714                : Into the Destroyer
    00:58:48.340                : Revelations
    01:02:53.917                : Repercussions
    01:06:22.250                : To Kef Bir
    01:09:53.753                : Jannah
    01:13:06.528                : The Emperor's Vault
    01:18:22.760                : The Duel
    01:23:40.369                : Remembrance
    01:27:02.027                : The Final Order Begins
    01:30:22.268                : The Destiny of a Jedi
    01:34:59.962                : Battle Plans
    01:38:47.022                : Welcome to Exegol
    01:40:35.003                : Drop Zone
    01:43:02.274                : Throne of the Sith
    01:45:27.002                : Dark Turn
    01:48:47.326                : Dyad in the Force
    01:53:26.771                : The Galaxy Responds
    01:55:29.893                : Emperor Reborn
    01:59:02.104                : Last Chance
    02:01:36.883                : Ben
    02:05:19.563                : Victory
    02:09:41.824                : Saga's End
    02:12:25.027                : End Credits

  • Peso: 39.7 GiB

Sinopsis

Descargar Star Wars: Episodio IX (2019) REMUX 1080p Latino. La Resistencia sobreviviente se enfrenta a la Primera Orden una vez más mientras continúa el viaje de Rey, Finn y Poe Dameron. Con el poder y el conocimiento de las generaciones detrás de ellos, comienza la batalla final.

Nota: Intro Con Textos En Español 🙂

Resubido para VIP!!!

Ficha técnica

Video trailer de la película

Enlaces de descarga

Rip de Bluray

Descargar Star Wars: Episodio IX (2019) REMUX 1080p Latino




Aportes de DPeliculasHDmega la pass es:dpeliculashdmega.org Aportes de CinemaniaHD la pass es:cinemaniahdd.com
Guardado en : Acción , Aventura , Ciencia ficción , Remux

Películas relacionadas

descargar Star Wars: Episodio IX (2019) REMUX 1080p Latino Full 1080p 1080p gratis, Star Wars: Episodio IX (2019) REMUX 1080p Latino Full 1080p mega 1 link, Star Wars: Episodio IX (2019) REMUX 1080p Latino Full 1080p pelicula completa, descargar Star Wars: Episodio IX (2019) REMUX 1080p Latino Full 1080p gratis en mega.

Star Wars: Episodio IX (2019) REMUX 1080p Latino pelicula full hd, Star Wars: Episodio IX (2019) REMUX 1080p Latino mega latino, Star Wars: Episodio IX (2019) REMUX 1080p Latino 4k latino, Star Wars: Episodio IX (2019) REMUX 1080p Latino pelicula completa, Star Wars: Episodio IX (2019) REMUX 1080p Latino descargar gratis, descargar Star Wars: Episodio IX (2019) REMUX 1080p Latino pelicula latino, Star Wars: Episodio IX (2019) REMUX 1080p Latino 1 link mega, Star Wars: Episodio IX (2019) REMUX 1080p Latino 1 link google drive, Star Wars: Episodio IX (2019) REMUX 1080p Latino hd 1080p latino.
Comentarios 1
  • Octavio Cesar posadas Martinez - 20 marzo, 2020

    Gracias por el ascenso de skywalker bdremux, saludos