×

¿Problemas para descargar con Mozilla, EDGE? Deshabilita la opción "Abrir vinculos en una pestaña nueva" tal como lo muestra ésta imagen.

Star Wars: Episodio IV (1977) REMUX 1080p Latino

753 vistas

Información de Star Wars: Episodio IV (1977) REMUX 1080p Latino

Datos de la película

  • Calidad: Full 1080p
  • Audio: Español Latino AC3 5.1 BLURAY - Ingles DTS 5.1 BLURAY
  • Subtitulos: Español Latino PGS - Ingles PGS
  • Resolución: 1920x1080p
  • Formato: MKV
  • Codec: H.264
  • Encoder: CinefiloCool
  • Mediainfo: Clic para Mostrar Datos Ver
  • Star Wars Episodio IV (1977) REMUX 1080p Latino-CMHDD.mkv
    Format                      : Matroska
    Format version              : Version 4
    File size                   : 32.9 GiB
    Duration                    : 2 h 4 min
    Overall bit rate mode       : Variable
    Overall bit rate            : 37.7 Mb/s
    Movie name                  : Una Nueva Esperanza (1977) CinemaniaHDD.Net
    Encoded date                : UTC 2022-05-11 01:42:14
    Writing application         : mkvmerge v56.1.0 ('My Friend') 64-bit
    Writing library             : libebml v1.4.2 + libmatroska v1.6.4
    Attachments                 : CINEMANIAHD.png

    Video
    ID                          : 1
    Format                      : AVC
    Format/Info                 : Advanced Video Codec
    Format profile              : High@L4.1
    Format settings             : CABAC / 4 Ref Frames
    Format settings, CABAC      : Yes
    Format settings, Reference  : 4 frames
    Codec ID                    : V_MPEG4/ISO/AVC
    Duration                    : 2 h 4 min
    Bit rate mode               : Variable
    Bit rate                    : 33.2 Mb/s
    Maximum bit rate            : 36.8 Mb/s
    Width                       : 1 920 pixels
    Height                      : 1 080 pixels
    Display aspect ratio        : 16:9
    Frame rate mode             : Constant
    Frame rate                  : 23.976 (24000/1001) FPS
    Color space                 : YUV
    Chroma subsampling          : 4:2:0
    Bit depth                   : 8 bits
    Scan type                   : Progressive
    Bits/(Pixel*Frame)          : 0.667
    Stream size                 : 28.9 GiB (88%)
    Title                       : REMUX HD1080p [CinemaniaHDD]
    Default                     : Yes
    Forced                      : Yes

    Audio #1
    ID                          : 2
    Format                      : AC-3
    Format/Info                 : Audio Coding 3
    Commercial name             : Dolby Digital
    Codec ID                    : A_AC3
    Duration                    : 2 h 4 min
    Bit rate mode               : Constant
    Bit rate                    : 448 kb/s
    Channel(s)                  : 6 channels
    Channel layout              : L R C LFE Ls Rs
    Sampling rate               : 48.0 kHz
    Frame rate                  : 31.250 FPS (1536 SPF)
    Compression mode            : Lossy
    Stream size                 : 400 MiB (1%)
    Title                       : Español Latino [CinemaniaHDD]
    Language                    : Spanish
    Service kind                : Complete Main
    Default                     : Yes
    Forced                      : Yes

    Audio #2
    ID                          : 3
    Format                      : DTS ES XXCH XLL
    Format/Info                 : Digital Theater Systems
    Commercial name             : DTS-HD Master Audio
    Codec ID                    : A_DTS
    Duration                    : 2 h 4 min
    Bit rate mode               : Variable
    Bit rate                    : 4 069 kb/s
    Channel(s)                  : 7 channels
    Channel layout              : C L R Ls Rs LFE Cb
    Sampling rate               : 48.0 kHz
    Frame rate                  : 93.750 FPS (512 SPF)
    Bit depth                   : 24 bits
    Compression mode            : Lossless
    Stream size                 : 3.55 GiB (11%)
    Title                       : Ingles [CinemaniaHDD]
    Language                    : English
    Default                     : No
    Forced                      : No

    Text #1
    ID                          : 4
    Format                      : PGS
    Muxing mode                 : zlib
    Codec ID                    : S_HDMV/PGS
    Codec ID/Info               : Picture based subtitle format used on BDs/HD-DVDs
    Duration                    : 1 h 14 min
    Bit rate                    : 1 664 b/s
    Count of elements           : 62
    Stream size                 : 911 KiB (0%)
    Title                       : Forzados-PGS [CinemaniaHDD]
    Language                    : Spanish
    Default                     : No
    Forced                      : No

    Text #2
    ID                          : 5
    Format                      : PGS
    Muxing mode                 : zlib
    Codec ID                    : S_HDMV/PGS
    Codec ID/Info               : Picture based subtitle format used on BDs/HD-DVDs
    Duration                    : 2 h 4 min
    Bit rate                    : 48.2 kb/s
    Count of elements           : 2610
    Stream size                 : 43.0 MiB (0%)
    Title                       : Español-PGS [CinemaniaHDD]
    Language                    : Spanish
    Default                     : No
    Forced                      : No

    Text #3
    ID                          : 6
    Format                      : PGS
    Muxing mode                 : zlib
    Codec ID                    : S_HDMV/PGS
    Codec ID/Info               : Picture based subtitle format used on BDs/HD-DVDs
    Duration                    : 2 h 4 min
    Bit rate                    : 57.3 kb/s
    Count of elements           : 3452
    Stream size                 : 51.1 MiB (0%)
    Title                       : Ingles-PGS [CinemaniaHDD]
    Language                    : English
    Default                     : No
    Forced                      : No

    Text #4
    ID                          : 7
    Format                      : UTF-8
    Codec ID                    : S_TEXT/UTF8
    Codec ID/Info               : UTF-8 Plain Text
    Duration                    : 4 min 8 s
    Bit rate                    : 34 b/s
    Count of elements           : 30
    Stream size                 : 1.05 KiB (0%)
    Title                       : Forzados-SRT [CinemaniaHDD]
    Language                    : Spanish
    Default                     : Yes
    Forced                      : Yes

    Text #5
    ID                          : 8
    Format                      : UTF-8
    Codec ID                    : S_TEXT/UTF8
    Codec ID/Info               : UTF-8 Plain Text
    Duration                    : 1 h 55 min
    Bit rate                    : 54 b/s
    Count of elements           : 1304
    Stream size                 : 46.4 KiB (0%)
    Title                       : Español-SRT [CinemaniaHDD]
    Language                    : Spanish
    Default                     : No
    Forced                      : No

    Menu
    00:00:00.000                : Opening Logos
    00:00:21.021                : A New Hope
    00:01:53.404                : Imperial Boarding Party
    00:04:52.792                : Artoo's Mission
    00:07:28.281                : Vader Confronts the Princess
    00:08:54.867                : Lost in the Desert
    00:11:21.389                : Land of the Jawas
    00:15:40.230                : Droids for Sale
    00:19:40.178                : In the Garage
    00:23:33.203                : Lars Family Dinner
    00:25:32.614                : Binary Sunset
    00:27:45.497                : Attack of the Sand People
    00:29:12.709                : Meeting Old Ben
    00:32:34.077                : "Your Father's Lightsaber"
    00:34:53.007                : Leia's Message
    00:36:54.211                : The Death Star
    00:39:05.634                : Torched Homestead
    00:41:42.291                : Luke's Decision
    00:42:31.548                : Mos Eisley Spacesport
    00:44:51.730                : The Cantina
    00:47:52.619                : Han Solo
    00:49:57.994                : Cornered by Greedo
    00:51:13.695                : Death Star Destination
    00:52:40.740                : Jabba the Hutt
    00:54:12.332                : The Millennium Falcon
    00:56:59.916                : Alderaan's Fate
    00:59:14.175                : Lightsaber Training
    01:03:10.828                : "That's No Moon..."
    01:06:16.472                : Secret Compartment
    01:08:21.972                : Planning the Escape
    01:12:32.389                : Wookiee Prisoner
    01:14:12.656                : Rescuing the Princess
    01:17:13.712                : Into the Garbage Chute
    01:19:09.327                : The Trash Compactor
    01:21:29.384                : The Walls Close In
    01:25:00.220                : Deactivating the Tractor Beam
    01:27:02.091                : Back to the Ship
    01:29:56.182                : Obi-Wan vs. Vader
    01:33:48.456                : Tie Fighter Attack
    01:36:39.877                : "They Let Us Go"
    01:38:06.755                : Arrival on Yavin 4
    01:39:37.513                : Rebel Briefing
    01:41:24.995                : Hans Departure
    01:42:37.401                : Luke and Biggs
    01:45:02.629                : Assault on the Death Star
    01:49:42.784                : Trench Runs
    01:55:18.911                : "Use the Force, Luke"
    01:57:47.393                : A Hero's Welcome
    01:58:28.518                : Medal Ceremony
    02:00:14.498                : End Credits

  • Peso: 32.9 GiB

Sinopsis

Descargar Star Wars: Episodio IV (1977) REMUX 1080p Latino. La princesa Leia, líder del movimiento rebelde que desea reinstaurar la República en la galaxia en los tiempos ominosos del Imperio, es capturada por las malévolas Fuerzas Imperiales, capitaneadas por el implacable Darth Vader, el sirviente más fiel del emperador. El intrépido Luke Skywalker, ayudado por Han Solo, capitán de la nave espacial «El Halcón Milenario», y los androides, R2D2 y C3PO, serán los encargados de luchar contra el enemigo y rescatar a la princesa para volver a instaurar la justicia en el seno de la Galaxia.

Nota: Intro Con Textos En Español 🙂

Resubido para VIP!!!

Ficha técnica

Video trailer de la película

Enlaces de descarga

Rip de Bluray

Descargar Star Wars: Episodio IV (1977) REMUX 1080p Latino




Aportes de DPeliculasHDmega la pass es:dpeliculashdmega.org Aportes de CinemaniaHD la pass es:cinemaniahdd.com
Guardado en : Acción , Aventura , Ciencia ficción , Remux

Películas relacionadas

  • Warning (2021) PLACEBO Full HD 1080p Latino

    Warning (2021) PLACEBO Full HD 1080p Latino

    2021
    Warning (2021) PLACEBO Full HD 1080p Latino

    1h 25m 2021

    Descargar Warning (2021) PLACEBO Full HD 1080p Latino. Ambientada en un futuro no muy lejano, la obra...

    Director: Agata Alexander

    Género: Ciencia ficción

    Actores: Toni Garrn

  • Warning (2021) REMUX 1080p Latino

    Warning (2021) REMUX 1080p Latino

    2021
    Warning (2021) REMUX 1080p Latino

    1h 25m 2021

    Descargar Warning (2021) REMUX 1080p Latino. Ambientada en un futuro no muy lejano, la obra reflexiona...

    Director: Agata Alexander

    Género: Ciencia ficción

    Actores: Toni Garrn

  • Paratemporal (2019) HD 1080p Latino

    Paratemporal (2019) HD 1080p Latino

    2020
    Paratemporal (2019) HD 1080p Latino

    1h 42m 2020

    Descargar Paratemporal (2019) HD 1080p Latino. Dos paramédicos de Nueva Orleans ven cómo sus vidas...

    Director: Sandy Parker

    Género: Ciencia ficción

    Actores: Walker Babington

  • Paratemporal (2019) PLACEBO Full HD 1080p Latino

    Paratemporal (2019) PLACEBO Full HD 1080p Latino

    2020
    Paratemporal (2019) PLACEBO Full HD 1080p Latino

    1h 42m 2020

    Descargar Paratemporal (2019) PLACEBO Full HD 1080p Latino. Dos paramédicos de Nueva Orleans ven cómo...

    Director: Sandy Parker

    Género: Ciencia ficción

    Actores: Walker Babington

Star Wars: Episodio IV (1977) REMUX 1080p Latino pelicula full hd, Star Wars: Episodio IV (1977) REMUX 1080p Latino mega latino, Star Wars: Episodio IV (1977) REMUX 1080p Latino 4k latino, Star Wars: Episodio IV (1977) REMUX 1080p Latino pelicula completa, Star Wars: Episodio IV (1977) REMUX 1080p Latino descargar gratis, descargar Star Wars: Episodio IV (1977) REMUX 1080p Latino pelicula latino, Star Wars: Episodio IV (1977) REMUX 1080p Latino 1 link mega, Star Wars: Episodio IV (1977) REMUX 1080p Latino 1 link google drive, Star Wars: Episodio IV (1977) REMUX 1080p Latino hd 1080p latino.
Comentarios 0