×

¿Problemas para descargar con Mozilla, EDGE? Deshabilita la opción "Abrir vinculos en una pestaña nueva" tal como lo muestra ésta imagen.

Star Wars: Episodio IV (1977) 4K UHD HDR Webrip Latino

2.029 vistas

Información de Star Wars: Episodio IV (1977) 4K UHD HDR Webrip Latino

Datos de la película

  • Calidad: WEBDL
  • Audio: Español Latino AC3 5.1 BLURAY - Ingles DTS 5.1 BLURAY
  • Subtitulos: Español Latino PGS - Ingles PGS
  • Resolución: 3840x1608p
  • Formato: MKV
  • Codec: HEVC
  • Encoder: CinefiloCool
  • Mediainfo: Clic para Mostrar Datos Ver
  • Star Wars Episodio IV (1977) UHD HDR Webrip Latino-CMHDD.mkv
    Format                      : Matroska
    Format version              : Version 4
    File size                   : 17.4 GiB
    Duration                    : 2 h 4 min
    Overall bit rate            : 19.9 Mb/s
    Movie name                  : CinemaniaHDD.Net
    Encoded date                : UTC 2020-01-04 05:41:29
    Writing application         : mkvmerge v38.0.0 ('The Silent Type') 64-bit
    Writing library             : libebml v1.3.9 + libmatroska v1.5.2
    Attachments                 : CINEMANIAHD.png

    Video
    ID                          : 1
    Format                      : HEVC
    Format/Info                 : High Efficiency Video Coding
    Format profile              : Main 10@L5@Main
    Codec ID                    : V_MPEGH/ISO/HEVC
    Duration                    : 2 h 4 min
    Bit rate                    : 17.9 Mb/s
    Width                       : 3 840 pixels
    Height                      : 1 608 pixels
    Display aspect ratio        : 2.40:1
    Frame rate mode             : Constant
    Frame rate                  : 23.976 (24000/1001) FPS
    Color space                 : YUV
    Chroma subsampling          : 4:2:0
    Bit depth                   : 10 bits
    Bits/(Pixel*Frame)          : 0.121
    Stream size                 : 15.6 GiB (90%)
    Title                       : 2160p HDR [Web]
    Writing library             : x265 3.2+9-971180b100f8:[Windows][MSVC 1923][64 bit] 10bit
    Encoding settings           : cpuid=1111039 / frame-threads=4 / numa-pools=28,0 / wpp / no-pmode / no-pme / no-psnr / no-ssim / log-level=2 / input-csp=1 / input-res=3840x1608 / interlace=0 / total-frames=0 / level-idc=0 / high-tier=1 / uhd-bd=0 / ref=5 / no-allow-non-conformance / repeat-headers / annexb / no-aud / no-hrd / info / hash=0 / no-temporal-layers / open-gop / min-keyint=23 / keyint=250 / gop-lookahead=0 / bframes=8 / b-adapt=2 / b-pyramid / bframe-bias=0 / rc-lookahead=40 / lookahead-slices=0 / scenecut=40 / radl=0 / no-splice / no-intra-refresh / ctu=64 / min-cu-size=8 / no-rect / no-amp / max-tu-size=32 / tu-inter-depth=3 / tu-intra-depth=3 / limit-tu=0 / rdoq-level=1 / dynamic-rd=0.00 / no-ssim-rd / signhide / no-tskip / nr-intra=0 / nr-inter=0 / no-constrained-intra / strong-intra-smoothing / max-merge=5 / limit-refs=0 / no-limit-modes / me=3 / subme=4 / merange=57 / temporal-mvp / no-frame-dup / no-hme / weightp / weightb / no-analyze-src-pics / deblock=0:0 / no-sao / no-sao-non-deblock / rd=6 / selective-sao=0 / no-early-skip / rskip / no-fast-intra / no-tskip-fast / no-cu-lossless / b-intra / no-splitrd-skip / rdpenalty=0 / psy-rd=4.00 / psy-rdoq=8.00 / no-rd-refine / no-lossless / cbqpoffs=0 / crqpoffs=0 / rc=crf / crf=16.0 / qcomp=0.60 / qpstep=4 / stats-write=0 / stats-read=0 / ipratio=1.40 / pbratio=1.30 / aq-mode=2 / aq-strength=1.00 / cutree / zone-count=0 / no-strict-cbr / qg-size=32 / no-rc-grain / qpmax=69 / qpmin=0 / no-const-vbv / sar=0 / overscan=0 / videoformat=5 / range=0 / colorprim=9 / transfer=16 / colormatrix=9 / chromaloc=0 / display-window=0 / cll=0,0 / min-luma=0 / max-luma=1023 / log2-max-poc-lsb=8 / vui-timing-info / vui-hrd-info / slices=1 / no-opt-qp-pps / no-opt-ref-list-length-pps / no-multi-pass-opt-rps / scenecut-bias=0.05 / no-opt-cu-delta-qp / no-aq-motion / hdr / hdr-opt / no-dhdr10-opt / no-idr-recovery-sei / analysis-reuse-level=5 / scale-factor=0 / refine-intra=0 / refine-inter=0 / refine-mv=1 / refine-ctu-distortion=0 / no-limit-sao / ctu-info=0 / no-lowpass-dct / refine-analysis-type=0 / copy-pic=1 / max-ausize-factor=1.0 / no-dynamic-refine / no-single-sei / no-hevc-aq / no-svt / no-field / qp-adaptation-range=1.00
    Default                     : Yes
    Forced                      : Yes
    Color range                 : Limited
    Color primaries             : BT.2020
    Transfer characteristics    : PQ
    Matrix coefficients         : BT.2020 non-constant

    Audio #1
    ID                          : 2
    Format                      : AC-3
    Format/Info                 : Audio Coding 3
    Commercial name             : Dolby Digital
    Codec ID                    : A_AC3
    Duration                    : 2 h 4 min
    Bit rate mode               : Constant
    Bit rate                    : 448 kb/s
    Channel(s)                  : 6 channels
    Channel layout              : L R C LFE Ls Rs
    Sampling rate               : 48.0 kHz
    Frame rate                  : 31.250 FPS (1536 SPF)
    Bit depth                   : 16 bits
    Compression mode            : Lossy
    Stream size                 : 400 MiB (2%)
    Title                       : AC3_5.1_Bluray_Esp
    Language                    : Spanish
    Service kind                : Complete Main
    Default                     : Yes
    Forced                      : Yes

    Audio #2
    ID                          : 3
    Format                      : DTS ES XXCH
    Format/Info                 : Digital Theater Systems
    Commercial name             : DTS-ES Discrete
    Codec ID                    : A_DTS
    Duration                    : 2 h 4 min
    Bit rate mode               : Constant
    Bit rate                    : 1 509 kb/s
    Channel(s)                  : 6 channels
    Channel(s)_Original         : 7 channels
    Channel layout              : C L R Ls Rs Cb LFE
    Sampling rate               : 48.0 kHz
    Frame rate                  : 93.750 FPS (512 SPF)
    Bit depth                   : 24 bits
    Compression mode            : Lossy
    Stream size                 : 1.31 GiB (8%)
    Title                       : DTS_5.1_Bluray_Eng
    Language                    : English
    Default                     : No
    Forced                      : No

    Text #1
    ID                          : 4
    Format                      : PGS
    Muxing mode                 : zlib
    Codec ID                    : S_HDMV/PGS
    Codec ID/Info               : Picture based subtitle format used on BDs/HD-DVDs
    Duration                    : 1 h 14 min
    Bit rate                    : 1 663 b/s
    Count of elements           : 62
    Stream size                 : 911 KiB (0%)
    Title                       : Sub_Forzados [PGS]
    Language                    : Spanish
    Default                     : Yes
    Forced                      : Yes

    Text #2
    ID                          : 5
    Format                      : PGS
    Muxing mode                 : zlib
    Codec ID                    : S_HDMV/PGS
    Codec ID/Info               : Picture based subtitle format used on BDs/HD-DVDs
    Duration                    : 2 h 4 min
    Bit rate                    : 48.2 kb/s
    Count of elements           : 2610
    Stream size                 : 43.0 MiB (0%)
    Title                       : Sub_Esp [PGS]
    Language                    : Spanish
    Default                     : No
    Forced                      : No

    Text #3
    ID                          : 6
    Format                      : PGS
    Muxing mode                 : zlib
    Codec ID                    : S_HDMV/PGS
    Codec ID/Info               : Picture based subtitle format used on BDs/HD-DVDs
    Duration                    : 2 h 4 min
    Bit rate                    : 53.0 kb/s
    Count of elements           : 2606
    Stream size                 : 47.3 MiB (0%)
    Title                       : Sub_Eng [PGS]
    Language                    : English
    Default                     : No
    Forced                      : No

    Text #4
    ID                          : 7
    Format                      : UTF-8
    Codec ID                    : S_TEXT/UTF8
    Codec ID/Info               : UTF-8 Plain Text
    Duration                    : 53 min 45 s
    Bit rate                    : 4 b/s
    Count of elements           : 44
    Stream size                 : 1.80 KiB (0%)
    Title                       : Sub_Forzados
    Language                    : Spanish
    Default                     : No
    Forced                      : No

    Text #5
    ID                          : 8
    Format                      : UTF-8
    Codec ID                    : S_TEXT/UTF8
    Codec ID/Info               : UTF-8 Plain Text
    Duration                    : 1 h 58 min
    Bit rate                    : 54 b/s
    Count of elements           : 1317
    Stream size                 : 47.1 KiB (0%)
    Title                       : Sub_Esp
    Language                    : Spanish
    Default                     : No
    Forced                      : No

    Menu
    00:00:00.000                : en:00:00:00.000
    00:00:21.021                : en:00:00:21.021
    00:01:53.405                : en:00:01:53.405
    00:04:52.792                : en:00:04:52.792
    00:07:28.281                : en:00:07:28.281
    00:08:54.868                : en:00:08:54.868
    00:11:21.389                : en:00:11:21.389
    00:15:40.231                : en:00:15:40.231
    00:19:40.179                : en:00:19:40.179
    00:23:33.203                : en:00:23:33.203
    00:25:32.614                : en:00:25:32.614
    00:27:45.497                : en:00:27:45.497
    00:29:12.709                : en:00:29:12.709
    00:32:34.077                : en:00:32:34.077
    00:34:53.008                : en:00:34:53.008
    00:36:54.212                : en:00:36:54.212
    00:39:05.635                : en:00:39:05.635
    00:41:42.291                : en:00:41:42.291
    00:42:31.549                : en:00:42:31.549
    00:44:51.731                : en:00:44:51.731
    00:47:52.620                : en:00:47:52.620
    00:49:57.995                : en:00:49:57.995
    00:51:13.696                : en:00:51:13.696
    00:52:40.741                : en:00:52:40.741
    00:54:12.332                : en:00:54:12.332
    00:56:59.916                : en:00:56:59.916
    00:59:14.176                : en:00:59:14.176
    01:03:10.829                : en:01:03:10.829
    01:06:16.472                : en:01:06:16.472
    01:08:21.973                : en:01:08:21.973
    01:12:32.390                : en:01:12:32.390
    01:14:12.657                : en:01:14:12.657
    01:17:13.712                : en:01:17:13.712
    01:19:09.328                : en:01:19:09.328
    01:21:29.384                : en:01:21:29.384
    01:25:00.220                : en:01:25:00.220
    01:27:02.092                : en:01:27:02.092
    01:29:56.182                : en:01:29:56.182
    01:33:48.456                : en:01:33:48.456
    01:36:39.877                : en:01:36:39.877
    01:38:06.756                : en:01:38:06.756
    01:39:37.513                : en:01:39:37.513
    01:41:24.996                : en:01:41:24.996
    01:42:37.401                : en:01:42:37.401
    01:45:02.630                : en:01:45:02.630
    01:49:42.785                : en:01:49:42.785
    01:55:18.912                : en:01:55:18.912
    01:57:47.394                : en:01:57:47.394
    01:58:28.518                : en:01:58:28.518
    02:00:14.499                : en:02:00:14.499

  • Peso: 17.4 GiB

Sinopsis

Descargar Star Wars: Episodio IV (1977) 4K UHD HDR Webrip Latino. La princesa Leia, líder del movimiento rebelde que desea reinstaurar la República en la galaxia en los tiempos ominosos del Imperio, es capturada por las malévolas Fuerzas Imperiales, capitaneadas por el implacable Darth Vader, el sirviente más fiel del emperador. El intrépido Luke Skywalker, ayudado por Han Solo, capitán de la nave espacial «El Halcón Milenario», y los androides, R2D2 y C3PO, serán los encargados de luchar contra el enemigo y rescatar a la princesa para volver a instaurar la justicia en el seno de la Galaxia.

Ficha técnica

Video trailer de la película

Enlaces de descarga

Rip de Bluray

Descargar Star Wars: Episodio IV (1977) 4K UHD HDR Webrip Latino




Aportes de DPeliculasHDmega la pass es:dpeliculashdmega.org Aportes de CinemaniaHD la pass es:cinemaniahdd.com

Películas relacionadas

descargar Star Wars: Episodio IV (1977) 4K UHD HDR Webrip Latino WEBDL 1080p gratis, Star Wars: Episodio IV (1977) 4K UHD HDR Webrip Latino WEBDL mega 1 link, Star Wars: Episodio IV (1977) 4K UHD HDR Webrip Latino WEBDL pelicula completa, descargar Star Wars: Episodio IV (1977) 4K UHD HDR Webrip Latino WEBDL gratis en mega.

Star Wars: Episodio IV (1977) 4K UHD HDR Webrip Latino pelicula full hd, Star Wars: Episodio IV (1977) 4K UHD HDR Webrip Latino mega latino, Star Wars: Episodio IV (1977) 4K UHD HDR Webrip Latino 4k latino, Star Wars: Episodio IV (1977) 4K UHD HDR Webrip Latino pelicula completa, Star Wars: Episodio IV (1977) 4K UHD HDR Webrip Latino descargar gratis, descargar Star Wars: Episodio IV (1977) 4K UHD HDR Webrip Latino pelicula latino, Star Wars: Episodio IV (1977) 4K UHD HDR Webrip Latino 1 link mega, Star Wars: Episodio IV (1977) 4K UHD HDR Webrip Latino 1 link google drive, Star Wars: Episodio IV (1977) 4K UHD HDR Webrip Latino hd 1080p latino.
Comentarios 0