×

¿Problemas para descargar con Mozilla, EDGE? Deshabilita la opción "Abrir vinculos en una pestaña nueva" tal como lo muestra ésta imagen.

Star Wars: Episodio III (2005) REMUX 1080p Latino

728 vistas

Información de Star Wars: Episodio III (2005) REMUX 1080p Latino

Datos de la película

  • Calidad: Full 1080p
  • Audio: Español Latino AC3 5.1 BLURAY - Ingles DTS 5.1 BLURAY
  • Subtitulos: Español Latino PGS - Ingles PGS
  • Resolución: 1920x1080p
  • Formato: MKV
  • Codec: H.264
  • Encoder: CinefiloCool
  • Mediainfo: Clic para Mostrar Datos Ver
  • Star Wars Episodio III (2005) REMUX 1080p Latino-CMHDD.mkv
    Format                      : Matroska
    Format version              : Version 4
    File size                   : 33.8 GiB
    Duration                    : 2 h 20 min
    Overall bit rate mode       : Variable
    Overall bit rate            : 34.5 Mb/s
    Movie name                  : La Venganza De Los Sith (2005) CinemaniaHDD.Net
    Encoded date                : UTC 2022-05-10 06:20:51
    Writing application         : mkvmerge v56.1.0 ('My Friend') 64-bit
    Writing library             : libebml v1.4.2 + libmatroska v1.6.4
    Attachments                 : CINEMANIAHD.png

    Video
    ID                          : 1
    Format                      : AVC
    Format/Info                 : Advanced Video Codec
    Format profile              : High@L4.1
    Format settings             : CABAC / 4 Ref Frames
    Format settings, CABAC      : Yes
    Format settings, Reference  : 4 frames
    Codec ID                    : V_MPEG4/ISO/AVC
    Duration                    : 2 h 20 min
    Bit rate mode               : Variable
    Bit rate                    : 29.6 Mb/s
    Maximum bit rate            : 35.6 Mb/s
    Width                       : 1 920 pixels
    Height                      : 1 080 pixels
    Display aspect ratio        : 16:9
    Frame rate mode             : Constant
    Frame rate                  : 23.976 (24000/1001) FPS
    Color space                 : YUV
    Chroma subsampling          : 4:2:0
    Bit depth                   : 8 bits
    Scan type                   : Progressive
    Bits/(Pixel*Frame)          : 0.596
    Stream size                 : 29.0 GiB (86%)
    Title                       : REMUX HD1080p [CinemaniaHDD]
    Default                     : Yes
    Forced                      : Yes

    Audio #1
    ID                          : 2
    Format                      : AC-3
    Format/Info                 : Audio Coding 3
    Commercial name             : Dolby Digital
    Codec ID                    : A_AC3
    Duration                    : 2 h 20 min
    Bit rate mode               : Constant
    Bit rate                    : 448 kb/s
    Channel(s)                  : 6 channels
    Channel layout              : L R C LFE Ls Rs
    Sampling rate               : 48.0 kHz
    Frame rate                  : 31.250 FPS (1536 SPF)
    Compression mode            : Lossy
    Stream size                 : 449 MiB (1%)
    Title                       : Español Latino [CinemaniaHDD]
    Language                    : Spanish
    Service kind                : Complete Main
    Default                     : Yes
    Forced                      : Yes

    Audio #2
    ID                          : 3
    Format                      : DTS ES XXCH XLL
    Format/Info                 : Digital Theater Systems
    Commercial name             : DTS-HD Master Audio
    Codec ID                    : A_DTS
    Duration                    : 2 h 20 min
    Bit rate mode               : Variable
    Bit rate                    : 4 403 kb/s
    Channel(s)                  : 7 channels
    Channel layout              : C L R Ls Rs LFE Cb
    Sampling rate               : 48.0 kHz
    Frame rate                  : 93.750 FPS (512 SPF)
    Bit depth                   : 24 bits
    Compression mode            : Lossless
    Stream size                 : 4.31 GiB (13%)
    Title                       : Ingles [CinemaniaHDD]
    Language                    : English
    Default                     : No
    Forced                      : No

    Text #1
    ID                          : 4
    Format                      : PGS
    Muxing mode                 : zlib
    Codec ID                    : S_HDMV/PGS
    Codec ID/Info               : Picture based subtitle format used on BDs/HD-DVDs
    Duration                    : 2 h 20 min
    Bit rate                    : 34.3 kb/s
    Count of elements           : 2278
    Stream size                 : 34.3 MiB (0%)
    Title                       : Español-PGS [CinemaniaHDD]
    Language                    : Spanish
    Default                     : No
    Forced                      : No

    Text #2
    ID                          : 5
    Format                      : PGS
    Muxing mode                 : zlib
    Codec ID                    : S_HDMV/PGS
    Codec ID/Info               : Picture based subtitle format used on BDs/HD-DVDs
    Duration                    : 2 h 20 min
    Bit rate                    : 41.6 kb/s
    Count of elements           : 2942
    Stream size                 : 41.6 MiB (0%)
    Title                       : Ingles-PGS [CinemaniaHDD]
    Language                    : English
    Default                     : No
    Forced                      : No

    Text #3
    ID                          : 6
    Format                      : UTF-8
    Codec ID                    : S_TEXT/UTF8
    Codec ID/Info               : UTF-8 Plain Text
    Duration                    : 2 h 7 min
    Bit rate                    : 41 b/s
    Count of elements           : 1138
    Stream size                 : 39.1 KiB (0%)
    Title                       : Español-SRT [CinemaniaHDD]
    Language                    : Spanish
    Default                     : No
    Forced                      : No

    Menu
    00:00:00.000                : Opening Logos
    00:00:23.523                : Revenge of the Sith
    00:01:50.068                : Battle Over Coruscant
    00:08:28.133                : General Grievous
    00:11:23.349                : Rescuing the Chancellor
    00:18:33.738                : Confronting Grievous
    00:23:40.461                : Happy Reunions
    00:27:37.698                : Grievous on Utapau
    00:29:12.960                : Bad Dreams
    00:33:18.914                : Counsel with Yoda
    00:35:45.435                : The Chancellor's Request
    00:36:47.997                : On the Jedi Council
    00:38:21.466                : Secret Assignment
    00:40:17.457                : Not the Chosen One?
    00:41:18.601                : Seeds of Distrust
    00:42:41.058                : Tragedy of Darth Plagueis
    00:48:01.587                : Kashyyyk
    00:50:20.517                : Brothers' Farewell
    00:52:24.933                : A Hero Lost
    00:53:58.026                : Arrival on Utapau
    00:56:26.466                : Obi-Wan vs. Grievous
    01:00:56.278                : Jedi War Council
    01:01:56.546                : Sidious Revealed
    01:05:26.047                : Utapau Chase
    01:07:40.598                : Mace Learns the Truth
    01:09:06.976                : Anakin's Fatal Decision
    01:10:52.999                : Mace vs. Sidious
    01:15:19.223                : Rise Lord Vader
    01:19:15.250                : March on the Jedi Temple
    01:20:37.458                : Order Sixty-Six
    01:24:20.597                : Time to Leave
    01:27:56.521                : "Wait for Me"
    01:29:57.392                : The Heroes Regroup
    01:33:40.406                : Birth of the Empire
    01:36:39.460                : The Terrible Truth
    01:38:35.535                : Obi-Wan Confronts Padmé
    01:41:24.370                : Padmé's Departure
    01:42:57.004                : "You're Breaking My Heart"
    01:48:18.784                : Yoda Visits the Emperor
    01:50:59.444                : Battle of the Heroes
    01:52:44.007                : Yoda vs. Sidious
    01:54:22.856                : Narrow Escapes
    01:56:54.925                : Immolation
    02:02:20.875                : The Emperor Arrives
    02:03:32.864                : Secret Delivery
    02:05:19.637                : Birth and Rebirth
    02:07:37.108                : Darth Vader Awakes
    02:08:57.063                : The Future of the Twins
    02:12:04.959                : A New Hope
    02:13:47.353                : End Credits

  • Peso: 33.8 GiB

Sinopsis

Descargar Star Wars: Episodio III (2005) REMUX 1080p Latino. Último capítulo de la saga de Star Wars, en el que Anakin Skywalker definitivamente se pasa al lado oscuro. En el Episodio III aparecerá el General Grievous, un ser implacable mitad-alien mitad-robot, el líder del ejército separatista Droid. Los Sith son los amos del lado oscuro de la Fuerza y los enemigos de los Jedi. Ellos fueron prácticamente exterminados por los Jedi hace mil años, pero la orden del mal sobrevivió en la clandestinidad.

Nota: Intro Con Textos En Español 🙂

Resubido para VIP!!!

Ficha técnica

Video trailer de la película

Enlaces de descarga

Rip de Bluray

Descargar Star Wars: Episodio III (2005) REMUX 1080p Latino




Aportes de DPeliculasHDmega la pass es:dpeliculashdmega.org Aportes de CinemaniaHD la pass es:cinemaniahdd.com
Guardado en : Acción , Aventura , Ciencia ficción , Remux

Películas relacionadas

  • Warning (2021) PLACEBO Full HD 1080p Latino

    Warning (2021) PLACEBO Full HD 1080p Latino

    2021
    Warning (2021) PLACEBO Full HD 1080p Latino

    1h 25m 2021

    Descargar Warning (2021) PLACEBO Full HD 1080p Latino. Ambientada en un futuro no muy lejano, la obra...

    Director: Agata Alexander

    Género: Ciencia ficción

    Actores: Toni Garrn

  • Warning (2021) REMUX 1080p Latino

    Warning (2021) REMUX 1080p Latino

    2021
    Warning (2021) REMUX 1080p Latino

    1h 25m 2021

    Descargar Warning (2021) REMUX 1080p Latino. Ambientada en un futuro no muy lejano, la obra reflexiona...

    Director: Agata Alexander

    Género: Ciencia ficción

    Actores: Toni Garrn

  • Paratemporal (2019) HD 1080p Latino

    Paratemporal (2019) HD 1080p Latino

    2020
    Paratemporal (2019) HD 1080p Latino

    1h 42m 2020

    Descargar Paratemporal (2019) HD 1080p Latino. Dos paramédicos de Nueva Orleans ven cómo sus vidas...

    Director: Sandy Parker

    Género: Ciencia ficción

    Actores: Walker Babington

  • Paratemporal (2019) PLACEBO Full HD 1080p Latino

    Paratemporal (2019) PLACEBO Full HD 1080p Latino

    2020
    Paratemporal (2019) PLACEBO Full HD 1080p Latino

    1h 42m 2020

    Descargar Paratemporal (2019) PLACEBO Full HD 1080p Latino. Dos paramédicos de Nueva Orleans ven cómo...

    Director: Sandy Parker

    Género: Ciencia ficción

    Actores: Walker Babington

Star Wars: Episodio III (2005) REMUX 1080p Latino pelicula full hd, Star Wars: Episodio III (2005) REMUX 1080p Latino mega latino, Star Wars: Episodio III (2005) REMUX 1080p Latino 4k latino, Star Wars: Episodio III (2005) REMUX 1080p Latino pelicula completa, Star Wars: Episodio III (2005) REMUX 1080p Latino descargar gratis, descargar Star Wars: Episodio III (2005) REMUX 1080p Latino pelicula latino, Star Wars: Episodio III (2005) REMUX 1080p Latino 1 link mega, Star Wars: Episodio III (2005) REMUX 1080p Latino 1 link google drive, Star Wars: Episodio III (2005) REMUX 1080p Latino hd 1080p latino.
Comentarios 0