×

¿Problemas para descargar con Mozilla, EDGE? Deshabilita la opción "Abrir vinculos en una pestaña nueva" tal como lo muestra ésta imagen.

Star Wars: Episodio III (2005) 4K UHD HDR Webrip Latino

2.035 vistas

Información de Star Wars: Episodio III (2005) 4K UHD HDR Webrip Latino

Datos de la película

  • Calidad: WEBDL
  • Audio: Español Latino AC3 5.1 BLURAY - Ingles DTS 5.1 BLURAY
  • Subtitulos: Español Latino PGS - Ingles PGS
  • Resolución: 3840x1608p
  • Formato: MKV
  • Codec: HEVC
  • Encoder: CinefiloCool
  • Mediainfo: Clic para Mostrar Datos Ver
  • Star Wars Episodio III (2005) UHD HDR Webrip Latino-CMHDD.mkv
    Format                      : Matroska
    Format version              : Version 4
    File size                   : 17.9 GiB
    Duration                    : 2 h 20 min
    Overall bit rate            : 18.3 Mb/s
    Movie name                  : CinemaniaHDD.Net
    Encoded date                : UTC 2020-01-04 05:09:19
    Writing application         : mkvmerge v38.0.0 ('The Silent Type') 64-bit
    Writing library             : libebml v1.3.9 + libmatroska v1.5.2
    Attachments                 : CINEMANIAHD.png

    Video
    ID                          : 1
    Format                      : HEVC
    Format/Info                 : High Efficiency Video Coding
    Format profile              : Main 10@L5@Main
    Codec ID                    : V_MPEGH/ISO/HEVC
    Duration                    : 2 h 20 min
    Bit rate                    : 16.3 Mb/s
    Width                       : 3 840 pixels
    Height                      : 1 608 pixels
    Display aspect ratio        : 2.40:1
    Frame rate mode             : Constant
    Frame rate                  : 23.976 (24000/1001) FPS
    Color space                 : YUV
    Chroma subsampling          : 4:2:0
    Bit depth                   : 10 bits
    Bits/(Pixel*Frame)          : 0.110
    Stream size                 : 16.0 GiB (89%)
    Title                       : 2160p HDR [Web]
    Writing library             : x265 3.2+9-971180b100f8:[Windows][MSVC 1923][64 bit] 10bit
    Encoding settings           : cpuid=1111039 / frame-threads=4 / numa-pools=28,0 / wpp / no-pmode / no-pme / no-psnr / no-ssim / log-level=2 / input-csp=1 / input-res=3840x1608 / interlace=0 / total-frames=0 / level-idc=0 / high-tier=1 / uhd-bd=0 / ref=5 / no-allow-non-conformance / repeat-headers / annexb / no-aud / no-hrd / info / hash=0 / no-temporal-layers / open-gop / min-keyint=23 / keyint=250 / gop-lookahead=0 / bframes=8 / b-adapt=2 / b-pyramid / bframe-bias=0 / rc-lookahead=40 / lookahead-slices=0 / scenecut=40 / radl=0 / no-splice / no-intra-refresh / ctu=64 / min-cu-size=8 / no-rect / no-amp / max-tu-size=32 / tu-inter-depth=3 / tu-intra-depth=3 / limit-tu=0 / rdoq-level=1 / dynamic-rd=0.00 / no-ssim-rd / signhide / no-tskip / nr-intra=0 / nr-inter=0 / no-constrained-intra / strong-intra-smoothing / max-merge=5 / limit-refs=0 / no-limit-modes / me=3 / subme=4 / merange=57 / temporal-mvp / no-frame-dup / no-hme / weightp / weightb / no-analyze-src-pics / deblock=0:0 / no-sao / no-sao-non-deblock / rd=6 / selective-sao=0 / no-early-skip / rskip / no-fast-intra / no-tskip-fast / no-cu-lossless / b-intra / no-splitrd-skip / rdpenalty=0 / psy-rd=4.00 / psy-rdoq=8.00 / no-rd-refine / no-lossless / cbqpoffs=0 / crqpoffs=0 / rc=crf / crf=17.0 / qcomp=0.60 / qpstep=4 / stats-write=0 / stats-read=0 / ipratio=1.40 / pbratio=1.30 / aq-mode=2 / aq-strength=1.00 / cutree / zone-count=0 / no-strict-cbr / qg-size=32 / no-rc-grain / qpmax=69 / qpmin=0 / no-const-vbv / sar=0 / overscan=0 / videoformat=5 / range=0 / colorprim=9 / transfer=16 / colormatrix=9 / chromaloc=0 / display-window=0 / cll=0,0 / min-luma=0 / max-luma=1023 / log2-max-poc-lsb=8 / vui-timing-info / vui-hrd-info / slices=1 / no-opt-qp-pps / no-opt-ref-list-length-pps / no-multi-pass-opt-rps / scenecut-bias=0.05 / no-opt-cu-delta-qp / no-aq-motion / hdr / hdr-opt / no-dhdr10-opt / no-idr-recovery-sei / analysis-reuse-level=5 / scale-factor=0 / refine-intra=0 / refine-inter=0 / refine-mv=1 / refine-ctu-distortion=0 / no-limit-sao / ctu-info=0 / no-lowpass-dct / refine-analysis-type=0 / copy-pic=1 / max-ausize-factor=1.0 / no-dynamic-refine / no-single-sei / no-hevc-aq / no-svt / no-field / qp-adaptation-range=1.00
    Default                     : Yes
    Forced                      : Yes
    Color range                 : Limited
    Color primaries             : BT.2020
    Transfer characteristics    : PQ
    Matrix coefficients         : BT.2020 non-constant

    Audio #1
    ID                          : 2
    Format                      : AC-3
    Format/Info                 : Audio Coding 3
    Commercial name             : Dolby Digital
    Codec ID                    : A_AC3
    Duration                    : 2 h 20 min
    Bit rate mode               : Constant
    Bit rate                    : 448 kb/s
    Channel(s)                  : 6 channels
    Channel layout              : L R C LFE Ls Rs
    Sampling rate               : 48.0 kHz
    Frame rate                  : 31.250 FPS (1536 SPF)
    Bit depth                   : 16 bits
    Compression mode            : Lossy
    Stream size                 : 449 MiB (2%)
    Title                       : AC3_5.1_Bluray_Esp
    Language                    : Spanish
    Service kind                : Complete Main
    Default                     : Yes
    Forced                      : Yes

    Audio #2
    ID                          : 3
    Format                      : DTS ES XXCH
    Format/Info                 : Digital Theater Systems
    Commercial name             : DTS-ES Discrete
    Codec ID                    : A_DTS
    Duration                    : 2 h 20 min
    Bit rate mode               : Constant
    Bit rate                    : 1 509 kb/s
    Channel(s)                  : 6 channels
    Channel(s)_Original         : 7 channels
    Channel layout              : C L R Ls Rs Cb LFE
    Sampling rate               : 48.0 kHz
    Frame rate                  : 93.750 FPS (512 SPF)
    Bit depth                   : 24 bits
    Compression mode            : Lossy
    Stream size                 : 1.48 GiB (8%)
    Title                       : DTS_5.1_Bluray_Eng
    Language                    : English
    Default                     : No
    Forced                      : No

    Text #1
    ID                          : 4
    Format                      : PGS
    Muxing mode                 : zlib
    Codec ID                    : S_HDMV/PGS
    Codec ID/Info               : Picture based subtitle format used on BDs/HD-DVDs
    Duration                    : 2 h 20 min
    Bit rate                    : 34.3 kb/s
    Count of elements           : 2278
    Stream size                 : 34.3 MiB (0%)
    Title                       : Sub_Esp [PGS]
    Language                    : Spanish
    Default                     : No
    Forced                      : No

    Text #2
    ID                          : 5
    Format                      : PGS
    Muxing mode                 : zlib
    Codec ID                    : S_HDMV/PGS
    Codec ID/Info               : Picture based subtitle format used on BDs/HD-DVDs
    Duration                    : 2 h 20 min
    Bit rate                    : 34.4 kb/s
    Count of elements           : 2230
    Stream size                 : 34.4 MiB (0%)
    Title                       : Sub_Eng [PGS]
    Language                    : English
    Default                     : No
    Forced                      : No

    Text #3
    ID                          : 6
    Format                      : UTF-8
    Codec ID                    : S_TEXT/UTF8
    Codec ID/Info               : UTF-8 Plain Text
    Duration                    : 1 min 5 s
    Bit rate                    : 75 b/s
    Count of elements           : 12
    Stream size                 : 624 Bytes (0%)
    Title                       : Sub_Forzados
    Language                    : Spanish
    Default                     : Yes
    Forced                      : Yes

    Text #4
    ID                          : 7
    Format                      : UTF-8
    Codec ID                    : S_TEXT/UTF8
    Codec ID/Info               : UTF-8 Plain Text
    Duration                    : 2 h 10 min
    Bit rate                    : 41 b/s
    Count of elements           : 1149
    Stream size                 : 39.4 KiB (0%)
    Title                       : Sub_Esp
    Language                    : Spanish
    Default                     : No
    Forced                      : No

    Menu
    00:00:00.000                : en:Opening Logos
    00:00:23.523                : en:Revenge of the Sith
    00:01:50.068                : en:Battle Over Coruscant
    00:08:28.133                : en:General Grievous
    00:11:23.349                : en:Rescuing the Chancellor
    00:18:33.738                : en:Confronting Grievous
    00:23:40.461                : en:Happy Reunions
    00:27:37.698                : en:Grievous on Utapau
    00:29:12.960                : en:Bad Dreams
    00:33:18.914                : en:Counsel with Yoda
    00:35:45.435                : en:The Chancellor's Request
    00:36:47.997                : en:On the Jedi Council
    00:38:21.466                : en:Secret Assignment
    00:40:17.457                : en:Not the Chosen One?
    00:41:18.601                : en:Seeds of Distrust
    00:42:41.058                : en:Tragedy of Darth Plagueis
    00:48:01.587                : en:Kashyyyk
    00:50:20.517                : en:Brothers' Farewell
    00:52:24.933                : en:A Hero Lost
    00:53:58.026                : en:Arrival on Utapau
    00:56:26.466                : en:Obi-Wan vs. Grievous
    01:00:56.278                : en:Jedi War Council
    01:01:56.546                : en:Sidious Revealed
    01:05:26.047                : en:Utapau Chase
    01:07:40.598                : en:Mace Learns the Truth
    01:09:06.976                : en:Anakin's Fatal Decision
    01:10:52.999                : en:Mace vs. Sidious
    01:15:19.223                : en:Rise Lord Vader
    01:19:15.250                : en:March on the Jedi Temple
    01:20:37.458                : en:Order Sixty-Six
    01:24:20.597                : en:Time to Leave
    01:27:56.521                : en:"Wait for Me"
    01:29:57.392                : en:The Heroes Regroup
    01:33:40.406                : en:Birth of the Empire
    01:36:39.460                : en:The Terrible Truth
    01:38:35.535                : en:Obi-Wan Confronts PadmГ©
    01:41:24.370                : en:PadmГ©'s Departure
    01:42:57.004                : en:"You're Breaking My Heart"
    01:48:18.784                : en:Yoda Visits the Emperor
    01:50:59.444                : en:Battle of the Heroes
    01:52:44.007                : en:Yoda vs. Sidious
    01:54:22.856                : en:Narrow Escapes
    01:56:54.925                : en:Immolation
    02:02:20.875                : en:The Emperor Arrives
    02:03:32.864                : en:Secret Delivery
    02:05:19.637                : en:Birth and Rebirth
    02:07:37.108                : en:Darth Vader Awakes
    02:08:57.063                : en:The Future of the Twins
    02:12:04.959                : en:A New Hope
    02:13:47.353                : en:End Credits

  • Peso: 17.9 GiB

Sinopsis

Descargar Star Wars: Episodio III (2005) 4K UHD HDR Webrip Latino. Último capítulo de la saga de Star Wars, en el que Anakin Skywalker definitivamente se pasa al lado oscuro. En el Episodio III aparecerá el General Grievous, un ser implacable mitad-alien mitad-robot, el líder del ejército separatista Droid. Los Sith son los amos del lado oscuro de la Fuerza y los enemigos de los Jedi. Ellos fueron prácticamente exterminados por los Jedi hace mil años, pero la orden del mal sobrevivió en la clandestinidad.

Ficha técnica

Video trailer de la película

Enlaces de descarga

Rip de Bluray

Descargar Star Wars: Episodio III (2005) 4K UHD HDR Webrip Latino




Aportes de DPeliculasHDmega la pass es:dpeliculashdmega.org Aportes de CinemaniaHD la pass es:cinemaniahdd.com

Películas relacionadas

descargar Star Wars: Episodio III (2005) 4K UHD HDR Webrip Latino WEBDL 1080p gratis, Star Wars: Episodio III (2005) 4K UHD HDR Webrip Latino WEBDL mega 1 link, Star Wars: Episodio III (2005) 4K UHD HDR Webrip Latino WEBDL pelicula completa, descargar Star Wars: Episodio III (2005) 4K UHD HDR Webrip Latino WEBDL gratis en mega.

Star Wars: Episodio III (2005) 4K UHD HDR Webrip Latino pelicula full hd, Star Wars: Episodio III (2005) 4K UHD HDR Webrip Latino mega latino, Star Wars: Episodio III (2005) 4K UHD HDR Webrip Latino 4k latino, Star Wars: Episodio III (2005) 4K UHD HDR Webrip Latino pelicula completa, Star Wars: Episodio III (2005) 4K UHD HDR Webrip Latino descargar gratis, descargar Star Wars: Episodio III (2005) 4K UHD HDR Webrip Latino pelicula latino, Star Wars: Episodio III (2005) 4K UHD HDR Webrip Latino 1 link mega, Star Wars: Episodio III (2005) 4K UHD HDR Webrip Latino 1 link google drive, Star Wars: Episodio III (2005) 4K UHD HDR Webrip Latino hd 1080p latino.
Comentarios 0