×

¿Problemas para descargar con Mozilla, EDGE? Deshabilita la opción "Abrir vinculos en una pestaña nueva" tal como lo muestra ésta imagen.

Star Wars: Episodio II (2002) REMUX 1080p Latino

739 vistas

Información de Star Wars: Episodio II (2002) REMUX 1080p Latino

Datos de la película

  • Calidad: Full 1080p
  • Audio: Español Latino AC3 5.1 BLURAY - Ingles DTS 5.1 BLURAY
  • Subtitulos: Español Latino PGS - Ingles PGS
  • Resolución: 1920x1080p
  • Formato: MKV
  • Codec: H.264
  • Encoder: CinefiloCool
  • Mediainfo: Clic para Mostrar Datos Ver
  • Star Wars Episodio II (2002) REMUX 1080p Latino-CMHDD.mkv
    Format                      : Matroska
    Format version              : Version 4
    File size                   : 33.5 GiB
    Duration                    : 2 h 22 min
    Overall bit rate mode       : Variable
    Overall bit rate            : 33.6 Mb/s
    Movie name                  : El Ataque De Los Clones (2002) CinemaniaHDD.Net
    Encoded date                : UTC 2022-05-09 01:46:25
    Writing application         : mkvmerge v56.1.0 ('My Friend') 64-bit
    Writing library             : libebml v1.4.2 + libmatroska v1.6.4

    Video
    ID                          : 1
    Format                      : AVC
    Format/Info                 : Advanced Video Codec
    Format profile              : High@L4.1
    Format settings             : CABAC / 4 Ref Frames
    Format settings, CABAC      : Yes
    Format settings, Reference  : 4 frames
    Format settings, GOP        : M=1, N=12
    Codec ID                    : V_MPEG4/ISO/AVC
    Duration                    : 2 h 22 min
    Bit rate mode               : Variable
    Bit rate                    : 28.6 Mb/s
    Maximum bit rate            : 35.7 Mb/s
    Width                       : 1 920 pixels
    Height                      : 1 080 pixels
    Display aspect ratio        : 16:9
    Frame rate mode             : Constant
    Frame rate                  : 23.976 (24000/1001) FPS
    Color space                 : YUV
    Chroma subsampling          : 4:2:0
    Bit depth                   : 8 bits
    Scan type                   : Progressive
    Bits/(Pixel*Frame)          : 0.575
    Stream size                 : 28.5 GiB (85%)
    Title                       : REMUX HD1080p [CinemaniaHDD]
    Default                     : Yes
    Forced                      : Yes

    Audio #1
    ID                          : 2
    Format                      : AC-3
    Format/Info                 : Audio Coding 3
    Commercial name             : Dolby Digital
    Codec ID                    : A_AC3
    Duration                    : 2 h 22 min
    Bit rate mode               : Constant
    Bit rate                    : 448 kb/s
    Channel(s)                  : 6 channels
    Channel layout              : L R C LFE Ls Rs
    Sampling rate               : 48.0 kHz
    Frame rate                  : 31.250 FPS (1536 SPF)
    Compression mode            : Lossy
    Stream size                 : 457 MiB (1%)
    Title                       : Español Latino [CinemaniaHDD]
    Language                    : Spanish
    Service kind                : Complete Main
    Default                     : Yes
    Forced                      : Yes

    Audio #2
    ID                          : 3
    Format                      : DTS ES XXCH XLL
    Format/Info                 : Digital Theater Systems
    Commercial name             : DTS-HD Master Audio
    Codec ID                    : A_DTS
    Duration                    : 2 h 22 min
    Bit rate mode               : Variable
    Bit rate                    : 4 533 kb/s
    Channel(s)                  : 7 channels
    Channel layout              : C L R Ls Rs LFE Cb
    Sampling rate               : 48.0 kHz
    Frame rate                  : 93.750 FPS (512 SPF)
    Bit depth                   : 24 bits
    Compression mode            : Lossless
    Stream size                 : 4.51 GiB (13%)
    Title                       : Ingles [CinemaniaHDD]
    Language                    : English
    Default                     : No
    Forced                      : No

    Text #1
    ID                          : 4
    Format                      : PGS
    Muxing mode                 : zlib
    Codec ID                    : S_HDMV/PGS
    Codec ID/Info               : Picture based subtitle format used on BDs/HD-DVDs
    Duration                    : 2 h 17 min
    Bit rate                    : 542 b/s
    Count of elements           : 34
    Stream size                 : 545 KiB (0%)
    Title                       : Forzados-PGS [CinemaniaHDD]
    Language                    : Spanish
    Default                     : No
    Forced                      : No

    Text #2
    ID                          : 5
    Format                      : PGS
    Muxing mode                 : zlib
    Codec ID                    : S_HDMV/PGS
    Codec ID/Info               : Picture based subtitle format used on BDs/HD-DVDs
    Duration                    : 2 h 22 min
    Bit rate                    : 35.4 kb/s
    Count of elements           : 2282
    Stream size                 : 36.0 MiB (0%)
    Title                       : Español-PGS [CinemaniaHDD]
    Language                    : Spanish
    Default                     : No
    Forced                      : No

    Text #3
    ID                          : 6
    Format                      : PGS
    Muxing mode                 : zlib
    Codec ID                    : S_HDMV/PGS
    Codec ID/Info               : Picture based subtitle format used on BDs/HD-DVDs
    Duration                    : 2 h 22 min
    Bit rate                    : 41.6 kb/s
    Count of elements           : 2654
    Stream size                 : 42.4 MiB (0%)
    Title                       : Ingles-PGS [CinemaniaHDD]
    Language                    : English
    Default                     : No
    Forced                      : No

    Text #4
    ID                          : 7
    Format                      : UTF-8
    Codec ID                    : S_TEXT/UTF8
    Codec ID/Info               : UTF-8 Plain Text
    Duration                    : 1 h 55 min
    Bit rate                    : 0 b/s
    Count of elements           : 16
    Stream size                 : 561 Bytes (0%)
    Title                       : Forzados-SRT [CinemaniaHDD]
    Language                    : Spanish
    Default                     : Yes
    Forced                      : Yes

    Text #5
    ID                          : 8
    Format                      : UTF-8
    Codec ID                    : S_TEXT/UTF8
    Codec ID/Info               : UTF-8 Plain Text
    Duration                    : 2 h 11 min
    Bit rate                    : 41 b/s
    Count of elements           : 1141
    Stream size                 : 40.1 KiB (0%)
    Title                       : Español-SRT [CinemaniaHDD]
    Language                    : Spanish
    Default                     : No
    Forced                      : No

    Menu
    00:00:00.000                : Opening Logos
    00:00:23.440                : Attack of the Clones
    00:01:50.527                : Return to Coruscant
    00:04:22.095                : Chancellors Meeting
    00:07:00.003                : Old Friends
    00:10:28.962                : Assassins
    00:14:19.901                : Speed Chase
    00:21:35.294                : Into the Club
    00:24:48.237                : New Assignments
    00:29:45.867                : Traveling Incognito
    00:31:33.475                : Dex's Diner
    00:33:48.526                : Jedi Archives
    00:34:50.505                : "Encouraged to Love"
    00:36:05.121                : Yoda and the Younglins
    00:38:25.929                : Return to Naboo
    00:39:25.363                : Audience with the Queen
    00:40:56.371                : Kamino Arrival
    00:42:12.780                : Meeting Lama Su
    00:44:02.014                : Stolen Kiss
    00:45:50.414                : Inspeting the Clones
    00:47:50.076                : Teasing a Senator
    00:50:21.018                : Jango's Apartment
    00:53:01.428                : Forbidden Love
    00:56:44.818                : Obi-Wan's Report
    00:58:56.700                : Nightmare
    01:00:46.059                : Obi-Wan vs. Jango
    01:03:41.192                : Back to Tatoonie
    01:06:24.355                : Asteroid Chase
    01:11:18.774                : Lar's Homestead
    01:14:01.354                : Anakin's Search
    01:15:23.477                : Dook's Separatist Plot
    01:17:48.873                : Tusken Camp
    01:21:40.354                : Out of Range
    01:23:46.897                : "You're Not All-Powerful"
    01:28:10.160                : Enemies Revealed
    01:30:52.906                : Obi-Wan Captive
    01:33:38.488                : Emergency Powers
    01:35:27.847                : Droid Factory
    01:42:44.867                : Love Pledge
    01:45:14.016                : The Arena
    01:49:53.629                : "This Party Is Over"
    01:56:22.475                : Yoda's Cavalry
    01:57:47.602                : Clone War
    02:00:29.180                : War Room
    02:04:48.981                : Duel with Dooku
    02:07:41.946                : Master Yoda
    02:11:23.667                : "Well Done Lord Tyranus"
    02:12:54.884                : "Begun, the Clone Wars Has"
    02:14:49.248                : Secret Union
    02:15:54.938                : End Credits

  • Peso: 33.5 GiB

Sinopsis

Descargar Star Wars: Episodio II (2002) REMUX 1080p Latino. Corren tenebrosos tiempos para la República. Ésta continúa envuelta en luchas y sumida en el caos. Un movimiento separatista, formado por centenares de planetas y poderosas alianzas y y lideradas por el misterioso conde Dooku, abre nuevas amenazas para la galaxia, a la que ni siquiera los Jedi parecen poder poner freno. Estas maniobras, planeadas hace mucho por una poderosa fuerza, conducen al estallido de las guerras clones y al principio del fin de la República. Para allanar el camino, los separatistas intentan asesinar a la senadora Padme Amidala. Para evitar futuros atentados, su seguridad es encomendada a dos caballeros Jedi…

Nota: Intro Con Textos En Español 🙂

Resubido para VIP!!!

Ficha técnica

Video trailer de la película

Enlaces de descarga

Rip de Bluray

Descargar Star Wars: Episodio II (2002) REMUX 1080p Latino




Aportes de DPeliculasHDmega la pass es:dpeliculashdmega.org Aportes de CinemaniaHD la pass es:cinemaniahdd.com
Guardado en : Acción , Aventura , Ciencia ficción , Remux

Películas relacionadas

descargar Star Wars: Episodio II (2002) REMUX 1080p Latino Full 1080p 1080p gratis, Star Wars: Episodio II (2002) REMUX 1080p Latino Full 1080p mega 1 link, Star Wars: Episodio II (2002) REMUX 1080p Latino Full 1080p pelicula completa, descargar Star Wars: Episodio II (2002) REMUX 1080p Latino Full 1080p gratis en mega.

Star Wars: Episodio II (2002) REMUX 1080p Latino pelicula full hd, Star Wars: Episodio II (2002) REMUX 1080p Latino mega latino, Star Wars: Episodio II (2002) REMUX 1080p Latino 4k latino, Star Wars: Episodio II (2002) REMUX 1080p Latino pelicula completa, Star Wars: Episodio II (2002) REMUX 1080p Latino descargar gratis, descargar Star Wars: Episodio II (2002) REMUX 1080p Latino pelicula latino, Star Wars: Episodio II (2002) REMUX 1080p Latino 1 link mega, Star Wars: Episodio II (2002) REMUX 1080p Latino 1 link google drive, Star Wars: Episodio II (2002) REMUX 1080p Latino hd 1080p latino.
Comentarios 0