×

¿Problemas para descargar con Mozilla, EDGE? Deshabilita la opción "Abrir vinculos en una pestaña nueva" tal como lo muestra ésta imagen.

Star Wars: Episodio II (2002) 4K UHD HDR Webrip Latino

2.187 vistas

Información de Star Wars: Episodio II (2002) 4K UHD HDR Webrip Latino

Datos de la película

  • Calidad: WEBDL
  • Audio: Se especifica abajo de la Sinopsis
  • Subtitulos: Español Latino PGS - Ingles PGS
  • Resolución: 3840x1608p
  • Formato: MKV
  • Codec: HEVC
  • Encoder: CinefiloCool
  • Mediainfo: Clic para Mostrar Datos Ver
  • Star Wars Episodio II (2002) UHD HDR Webrip Latino v2-CMHDD.mkv
    Format                      : Matroska
    Format version              : Version 4
    File size                   : 14.2 GiB
    Duration                    : 2 h 22 min
    Overall bit rate            : 14.3 Mb/s
    Movie name                  : CinemaniaHDD.Net
    Encoded date                : UTC 2020-01-09 17:09:48
    Writing application         : mkvmerge v38.0.0 ('The Silent Type') 64-bit
    Writing library             : libebml v1.3.9 + libmatroska v1.5.2
    Attachments                 : CINEMANIAHD.png

    Video
    ID                          : 1
    Format                      : HEVC
    Format/Info                 : High Efficiency Video Coding
    Format profile              : Main 10@L5@Main
    Codec ID                    : V_MPEGH/ISO/HEVC
    Duration                    : 2 h 22 min
    Bit rate                    : 12.3 Mb/s
    Width                       : 3 840 pixels
    Height                      : 1 608 pixels
    Display aspect ratio        : 2.40:1
    Frame rate mode             : Constant
    Frame rate                  : 23.976 (24000/1001) FPS
    Color space                 : YUV
    Chroma subsampling          : 4:2:0
    Bit depth                   : 10 bits
    Bits/(Pixel*Frame)          : 0.083
    Stream size                 : 12.2 GiB (86%)
    Title                       : 2160p HDR [Web]
    Writing library             : x265 3.2+9-971180b100f8:[Windows][MSVC 1923][64 bit] 10bit
    Encoding settings           : cpuid=1111039 / frame-threads=4 / numa-pools=0,28 / wpp / no-pmode / no-pme / no-psnr / no-ssim / log-level=2 / input-csp=1 / input-res=3840x1608 / interlace=0 / total-frames=0 / level-idc=0 / high-tier=1 / uhd-bd=0 / ref=5 / no-allow-non-conformance / repeat-headers / annexb / no-aud / no-hrd / info / hash=0 / no-temporal-layers / open-gop / min-keyint=23 / keyint=250 / gop-lookahead=0 / bframes=8 / b-adapt=2 / b-pyramid / bframe-bias=0 / rc-lookahead=40 / lookahead-slices=0 / scenecut=40 / radl=0 / no-splice / no-intra-refresh / ctu=64 / min-cu-size=8 / no-rect / no-amp / max-tu-size=32 / tu-inter-depth=3 / tu-intra-depth=3 / limit-tu=0 / rdoq-level=1 / dynamic-rd=0.00 / no-ssim-rd / signhide / no-tskip / nr-intra=0 / nr-inter=0 / no-constrained-intra / strong-intra-smoothing / max-merge=5 / limit-refs=0 / no-limit-modes / me=3 / subme=4 / merange=57 / temporal-mvp / no-frame-dup / no-hme / weightp / weightb / no-analyze-src-pics / deblock=0:0 / no-sao / no-sao-non-deblock / rd=6 / selective-sao=0 / no-early-skip / rskip / no-fast-intra / no-tskip-fast / no-cu-lossless / b-intra / no-splitrd-skip / rdpenalty=0 / psy-rd=4.00 / psy-rdoq=8.00 / no-rd-refine / no-lossless / cbqpoffs=0 / crqpoffs=0 / rc=crf / crf=10.0 / qcomp=0.60 / qpstep=4 / stats-write=0 / stats-read=0 / ipratio=1.40 / pbratio=1.30 / aq-mode=2 / aq-strength=1.00 / cutree / zone-count=0 / no-strict-cbr / qg-size=32 / no-rc-grain / qpmax=69 / qpmin=0 / no-const-vbv / sar=0 / overscan=0 / videoformat=5 / range=0 / colorprim=9 / transfer=16 / colormatrix=9 / chromaloc=0 / display-window=0 / cll=0,0 / min-luma=0 / max-luma=1023 / log2-max-poc-lsb=8 / vui-timing-info / vui-hrd-info / slices=1 / no-opt-qp-pps / no-opt-ref-list-length-pps / no-multi-pass-opt-rps / scenecut-bias=0.05 / no-opt-cu-delta-qp / no-aq-motion / hdr / hdr-opt / no-dhdr10-opt / no-idr-recovery-sei / analysis-reuse-level=5 / scale-factor=0 / refine-intra=0 / refine-inter=0 / refine-mv=1 / refine-ctu-distortion=0 / no-limit-sao / ctu-info=0 / no-lowpass-dct / refine-analysis-type=0 / copy-pic=1 / max-ausize-factor=1.0 / no-dynamic-refine / no-single-sei / no-hevc-aq / no-svt / no-field / qp-adaptation-range=1.00
    Default                     : Yes
    Forced                      : Yes
    Color range                 : Limited
    Color primaries             : BT.2020
    Transfer characteristics    : PQ
    Matrix coefficients         : BT.2020 non-constant

    Audio #1
    ID                          : 2
    Format                      : AC-3
    Format/Info                 : Audio Coding 3
    Commercial name             : Dolby Digital
    Codec ID                    : A_AC3
    Duration                    : 2 h 22 min
    Bit rate mode               : Constant
    Bit rate                    : 448 kb/s
    Channel(s)                  : 6 channels
    Channel layout              : L R C LFE Ls Rs
    Sampling rate               : 48.0 kHz
    Frame rate                  : 31.250 FPS (1536 SPF)
    Bit depth                   : 16 bits
    Compression mode            : Lossy
    Stream size                 : 457 MiB (3%)
    Title                       : AC3_5.1_Bluray_Esp
    Language                    : Spanish
    Service kind                : Complete Main
    Default                     : Yes
    Forced                      : Yes

    Audio #2
    ID                          : 3
    Format                      : DTS ES XXCH
    Format/Info                 : Digital Theater Systems
    Commercial name             : DTS-ES Discrete
    Codec ID                    : A_DTS
    Duration                    : 2 h 22 min
    Bit rate mode               : Constant
    Bit rate                    : 1 509 kb/s
    Channel(s)                  : 6 channels
    Channel(s)_Original         : 7 channels
    Channel layout              : C L R Ls Rs Cb LFE
    Sampling rate               : 48.0 kHz
    Frame rate                  : 93.750 FPS (512 SPF)
    Bit depth                   : 24 bits
    Compression mode            : Lossy
    Stream size                 : 1.50 GiB (11%)
    Title                       : DTS_5.1_Bluray_Eng
    Language                    : English
    Default                     : No
    Forced                      : No

    Text #1
    ID                          : 4
    Format                      : PGS
    Muxing mode                 : zlib
    Codec ID                    : S_HDMV/PGS
    Codec ID/Info               : Picture based subtitle format used on BDs/HD-DVDs
    Duration                    : 2 h 17 min
    Bit rate                    : 542 b/s
    Count of elements           : 34
    Stream size                 : 545 KiB (0%)
    Title                       : Sub_Forzados [PGS]
    Language                    : Spanish
    Default                     : Yes
    Forced                      : Yes

    Text #2
    ID                          : 5
    Format                      : PGS
    Muxing mode                 : zlib
    Codec ID                    : S_HDMV/PGS
    Codec ID/Info               : Picture based subtitle format used on BDs/HD-DVDs
    Duration                    : 2 h 22 min
    Bit rate                    : 35.4 kb/s
    Count of elements           : 2282
    Stream size                 : 36.0 MiB (0%)
    Title                       : Sub_Esp [PGS]
    Language                    : Spanish
    Default                     : No
    Forced                      : No

    Text #3
    ID                          : 6
    Format                      : PGS
    Muxing mode                 : zlib
    Codec ID                    : S_HDMV/PGS
    Codec ID/Info               : Picture based subtitle format used on BDs/HD-DVDs
    Duration                    : 2 h 22 min
    Bit rate                    : 36.9 kb/s
    Count of elements           : 2434
    Stream size                 : 37.6 MiB (0%)
    Title                       : Sub_Eng [PGS]
    Language                    : English
    Default                     : No
    Forced                      : No

    Text #4
    ID                          : 7
    Format                      : UTF-8
    Codec ID                    : S_TEXT/UTF8
    Codec ID/Info               : UTF-8 Plain Text
    Duration                    : 1 h 55 min
    Bit rate                    : 0 b/s
    Count of elements           : 16
    Stream size                 : 561 Bytes (0%)
    Title                       : Sub_Forzados
    Language                    : Spanish
    Default                     : No
    Forced                      : No

    Text #5
    ID                          : 8
    Format                      : UTF-8
    Codec ID                    : S_TEXT/UTF8
    Codec ID/Info               : UTF-8 Plain Text
    Duration                    : 2 h 13 min
    Bit rate                    : 41 b/s
    Count of elements           : 1154
    Stream size                 : 40.7 KiB (0%)
    Title                       : Sub_Esp
    Language                    : Spanish
    Default                     : No
    Forced                      : No

    Menu
    00:00:00.000                : en:Opening Logos
    00:00:23.440                : en:Attack of the Clones
    00:01:50.527                : en:Return to Coruscant
    00:04:22.095                : en:Chancellors Meeting
    00:07:00.003                : en:Old Friends
    00:10:28.962                : en:Assassins
    00:14:19.901                : en:Speed Chase
    00:21:35.294                : en:Into the Club
    00:24:48.237                : en:New Assignments
    00:29:45.867                : en:Traveling Incognito
    00:31:33.475                : en:Dex's Diner
    00:33:48.526                : en:Jedi Archives
    00:34:50.505                : en:"Encouraged to Love"
    00:36:05.121                : en:Yoda and the Younglins
    00:38:25.929                : en:Return to Naboo
    00:39:25.363                : en:Audience with the Queen
    00:40:56.371                : en:Kamino Arrival
    00:42:12.780                : en:Meeting Lama Su
    00:44:02.014                : en:Stolen Kiss
    00:45:50.414                : en:Inspeting the Clones
    00:47:50.076                : en:Teasing a Senator
    00:50:21.018                : en:Jango's Apartment
    00:53:01.428                : en:Forbidden Love
    00:56:44.818                : en:Obi-Wan's Report
    00:58:56.700                : en:Nightmare
    01:00:46.059                : en:Obi-Wan vs. Jango
    01:03:41.192                : en:Back to Tatoonie
    01:06:24.355                : en:Asteroid Chase
    01:11:18.774                : en:Lar's Homestead
    01:14:01.354                : en:Anakin's Search
    01:15:23.477                : en:Dook's Separatist Plot
    01:17:48.873                : en:Tusken Camp
    01:21:40.354                : en:Out of Range
    01:23:46.897                : en:"You're Not All-Powerful"
    01:28:10.160                : en:Enemies Revealed
    01:30:52.906                : en:Obi-Wan Captive
    01:33:38.488                : en:Emergency Powers
    01:35:27.847                : en:Droid Factory
    01:42:44.867                : en:Love Pledge
    01:45:14.016                : en:The Arena
    01:49:53.629                : en:"This Party Is Over"
    01:56:22.475                : en:Yoda's Cavalry
    01:57:47.602                : en:Clone War
    02:00:29.180                : en:War Room
    02:04:48.981                : en:Duel with Dooku
    02:07:41.946                : en:Master Yoda
    02:11:23.667                : en:"Well Done Lord Tyranus"
    02:12:54.884                : en:"Begun, the Clone Wars Has"
    02:14:49.248                : en:Secret Union
    02:15:54.938                : en:End Credits

  • Peso: 14.2 GiB

Sinopsis

Descargar Star Wars: Episodio II (2002) 4K UHD HDR Webrip Latino. Corren tenebrosos tiempos para la República. Ésta continúa envuelta en luchas y sumida en el caos. Un movimiento separatista, formado por centenares de planetas y poderosas alianzas y y lideradas por el misterioso conde Dooku, abre nuevas amenazas para la galaxia, a la que ni siquiera los Jedi parecen poder poner freno. Estas maniobras, planeadas hace mucho por una poderosa fuerza, conducen al estallido de las guerras clones y al principio del fin de la República. Para allanar el camino, los separatistas intentan asesinar a la senadora Padme Amidala. Para evitar futuros atentados, su seguridad es encomendada a dos caballeros Jedi…

Audio Español Latino AC3 5.1 Bluray – Ingles DTS 5.1 Bluray

Nota: Corregido Audio Latino y Actualizado a version de Bluray 🙂
para los que ya la habian bajado y no desean hacerlo de nuevo, aplicar delay de «+982 ms»

Ficha técnica

Video trailer de la película

Enlaces de descarga

Rip de Bluray

Descargar Star Wars: Episodio II (2002) 4K UHD HDR Webrip Latino




Aportes de DPeliculasHDmega la pass es:dpeliculashdmega.org Aportes de CinemaniaHD la pass es:cinemaniahdd.com Aportes recientes:cinemaniahdd.net

Películas relacionadas

descargar Star Wars: Episodio II (2002) 4K UHD HDR Webrip Latino WEBDL 1080p gratis, Star Wars: Episodio II (2002) 4K UHD HDR Webrip Latino WEBDL mega 1 link, Star Wars: Episodio II (2002) 4K UHD HDR Webrip Latino WEBDL pelicula completa, descargar Star Wars: Episodio II (2002) 4K UHD HDR Webrip Latino WEBDL gratis en mega.

Star Wars: Episodio II (2002) 4K UHD HDR Webrip Latino pelicula full hd, Star Wars: Episodio II (2002) 4K UHD HDR Webrip Latino mega latino, Star Wars: Episodio II (2002) 4K UHD HDR Webrip Latino 4k latino, Star Wars: Episodio II (2002) 4K UHD HDR Webrip Latino pelicula completa, Star Wars: Episodio II (2002) 4K UHD HDR Webrip Latino descargar gratis, descargar Star Wars: Episodio II (2002) 4K UHD HDR Webrip Latino pelicula latino, Star Wars: Episodio II (2002) 4K UHD HDR Webrip Latino 1 link mega, Star Wars: Episodio II (2002) 4K UHD HDR Webrip Latino 1 link google drive, Star Wars: Episodio II (2002) 4K UHD HDR Webrip Latino hd 1080p latino.
Comentarios 0