×

¿Problemas para descargar con Mozilla, EDGE? Deshabilita la opción "Abrir vinculos en una pestaña nueva" tal como lo muestra ésta imagen.

Star Wars: Episodio I (1999) REMUX 1080p Latino

1.313 vistas

Información de Star Wars: Episodio I (1999) REMUX 1080p Latino

Datos de la película

  • Calidad: Full 1080p
  • Audio: Español Latino AC3 5.1 BLURAY - Ingles DTS 5.1 BLURAY
  • Subtitulos: Español Latino PGS - Ingles PGS
  • Resolución: 1920x1080p
  • Formato: MKV
  • Codec: H.264
  • Encoder: CinefiloCool
  • Mediainfo: Clic para Mostrar Datos Ver
  • Star Wars Episodio I (1999) REMUX 1080p Latino-CMHDD.mkv
    Format                      : Matroska
    Format version              : Version 4
    File size                   : 33.7 GiB
    Duration                    : 2 h 16 min
    Overall bit rate mode       : Variable
    Overall bit rate            : 35.4 Mb/s
    Movie name                  : La Amenaza Fantasma (1999) CinemaniaHDD.Net
    Encoded date                : UTC 2022-05-08 06:00:51
    Writing application         : mkvmerge v56.1.0 ('My Friend') 64-bit
    Writing library             : libebml v1.4.2 + libmatroska v1.6.4
    Attachments                 : CINEMANIAHD.png

    Video
    ID                          : 1
    Format                      : AVC
    Format/Info                 : Advanced Video Codec
    Format profile              : High@L4.1
    Format settings             : CABAC / 4 Ref Frames
    Format settings, CABAC      : Yes
    Format settings, Reference  : 4 frames
    Codec ID                    : V_MPEG4/ISO/AVC
    Duration                    : 2 h 16 min
    Bit rate mode               : Variable
    Bit rate                    : 30.1 Mb/s
    Maximum bit rate            : 35.6 Mb/s
    Width                       : 1 920 pixels
    Height                      : 1 080 pixels
    Display aspect ratio        : 16:9
    Frame rate mode             : Constant
    Frame rate                  : 23.976 (24000/1001) FPS
    Color space                 : YUV
    Chroma subsampling          : 4:2:0
    Bit depth                   : 8 bits
    Scan type                   : Progressive
    Bits/(Pixel*Frame)          : 0.606
    Stream size                 : 28.6 GiB (85%)
    Title                       : REMUX HD1080p [CinemaniaHDD]
    Language                    : English
    Default                     : Yes
    Forced                      : Yes

    Audio #1
    ID                          : 2
    Format                      : AC-3
    Format/Info                 : Audio Coding 3
    Commercial name             : Dolby Digital
    Codec ID                    : A_AC3
    Duration                    : 2 h 16 min
    Bit rate mode               : Constant
    Bit rate                    : 448 kb/s
    Channel(s)                  : 6 channels
    Channel layout              : L R C LFE Ls Rs
    Sampling rate               : 48.0 kHz
    Frame rate                  : 31.250 FPS (1536 SPF)
    Compression mode            : Lossy
    Delay relative to video     : 31 ms
    Stream size                 : 436 MiB (1%)
    Title                       : Español Latino [CinemaniaHDD]
    Language                    : Spanish
    Service kind                : Complete Main
    Default                     : Yes
    Forced                      : Yes

    Audio #2
    ID                          : 3
    Format                      : DTS ES XXCH XLL
    Format/Info                 : Digital Theater Systems
    Commercial name             : DTS-HD Master Audio
    Codec ID                    : A_DTS
    Duration                    : 2 h 16 min
    Bit rate mode               : Variable
    Bit rate                    : 4 815 kb/s
    Channel(s)                  : 7 channels
    Channel layout              : C L R Ls Rs LFE Cb
    Sampling rate               : 48.0 kHz
    Frame rate                  : 93.750 FPS (512 SPF)
    Bit depth                   : 24 bits
    Compression mode            : Lossless
    Stream size                 : 4.58 GiB (14%)
    Title                       : Ingles [CinemaniaHDD]
    Language                    : English
    Default                     : No
    Forced                      : No

    Text #1
    ID                          : 4
    Format                      : PGS
    Muxing mode                 : zlib
    Codec ID                    : S_HDMV/PGS
    Codec ID/Info               : Picture based subtitle format used on BDs/HD-DVDs
    Duration                    : 1 h 44 min
    Bit rate                    : 1 118 b/s
    Count of elements           : 58
    Stream size                 : 856 KiB (0%)
    Title                       : Forzados-PGS [CinemaniaHDD]
    Language                    : Spanish
    Default                     : No
    Forced                      : No

    Text #2
    ID                          : 5
    Format                      : PGS
    Muxing mode                 : zlib
    Codec ID                    : S_HDMV/PGS
    Codec ID/Info               : Picture based subtitle format used on BDs/HD-DVDs
    Duration                    : 2 h 16 min
    Bit rate                    : 44.1 kb/s
    Count of elements           : 2698
    Stream size                 : 43.0 MiB (0%)
    Title                       : Español-PGS [CinemaniaHDD]
    Language                    : Spanish
    Default                     : No
    Forced                      : No

    Text #3
    ID                          : 6
    Format                      : PGS
    Muxing mode                 : zlib
    Codec ID                    : S_HDMV/PGS
    Codec ID/Info               : Picture based subtitle format used on BDs/HD-DVDs
    Duration                    : 2 h 16 min
    Bit rate                    : 51.9 kb/s
    Count of elements           : 3317
    Stream size                 : 50.5 MiB (0%)
    Title                       : Ingles-PGS [CinemaniaHDD]
    Language                    : English
    Default                     : No
    Forced                      : No

    Text #4
    ID                          : 7
    Format                      : UTF-8
    Codec ID                    : S_TEXT/UTF8
    Codec ID/Info               : UTF-8 Plain Text
    Duration                    : 26 min 44 s
    Bit rate                    : 4 b/s
    Count of elements           : 30
    Stream size                 : 1 000 Bytes (0%)
    Title                       : Forzados-SRT [CinemaniaHDD]
    Language                    : Spanish
    Default                     : Yes
    Forced                      : Yes

    Text #5
    ID                          : 8
    Format                      : UTF-8
    Codec ID                    : S_TEXT/UTF8
    Codec ID/Info               : UTF-8 Plain Text
    Duration                    : 2 h 7 min
    Bit rate                    : 51 b/s
    Count of elements           : 1348
    Stream size                 : 48.0 KiB (0%)
    Title                       : Español-SRT [CinemaniaHDD]
    Language                    : Spanish
    Default                     : No
    Forced                      : No

    Menu
    00:00:00.000                : 01. Opening Logos
    00:00:21.104                : 02. The Phantom Menace
    00:01:52.738                : 03. Short Negotiations
    00:07:55.350                : 04. Queen Amidala
    00:09:55.970                : 05. Landing on Naboo
    00:11:18.761                : 06. Jar Jar Binks
    00:13:24.178                : 07. Otoh Gunga
    00:14:49.806                : 08. Boss Nass
    00:17:14.242                : 09. The Planet Core
    00:20:40.948                : 10. Invasion of Theed
    00:22:25.302                : 11. Suprise Rescue
    00:25:12.886                : 12. Running the Blockade
    00:29:32.813                : 13. Tatooine
    00:31:41.483                : 14. Watto's Shop
    00:35:51.733                : 15. Fateful Meetings
    00:40:48.571                : 16. Dinner Conversation
    00:44:16.320                : 17. Preparing for the Race
    00:52:04.580                : 18. A Wager with Watto
    00:55:03.842                : 19. Meet the Podracers
    00:58:27.921                : 20. Begin the "Race"
    01:02:27.702                : 21. Lap Two
    01:05:33.012                : 22. Home Stretch
    01:10:06.911                : 23. Collecting the Prize
    01:11:17.940                : 24. Choosing a New Path
    01:16:20.951                : 25. Darth Maul Attacks
    01:18:08.100                : 26. The Queen's Worries
    01:20:26.363                : 27. Arrival on Coruscant
    01:24:18.178                : 28. The Jedi Council
    01:26:44.783                : 29. Senate Session
    01:29:54.723                : 30. Testing Anakin
    01:31:02.415                : 31. Palpatine's Nomination
    01:33:08.541                : 32. Anakin's Future
    01:37:21.419                : 33. The Queen's Gambit
    01:39:06.315                : 34. A Plea to the Gungans
    01:42:33.731                : 35. Battle Plans
    01:44:41.567                : 36. "Wipe Them Out"
    01:46:19.248                : 37. Retaking the Palace
    01:48:07.731                : 38. The Conflict Continues
    01:50:24.952                : 39. Duel of the Fates
    01:56:47.667                : 40. Gungan Retreat
    01:59:13.063                : 41. Qui-Gon vs. Darth-Maul
    02:00:31.391                : 42. Capturing the Viceroy
    02:01:21.316                : 43. Obi-Wan vs. Darth Maul
    02:02:23.378                : 44. Control Ship Destroyed
    02:03:56.971                : 45. A Sith Vanquished
    02:05:15.133                : 46. Chancellor Palpatine Arrives
    02:06:25.995                : 47. New Knight, New Apprentice
    02:07:23.177                : 48. Farewell to a Jedi
    02:08:28.993                : 49. Naboo Celebration
    02:09:53.536                : 50. End Credits

  • Peso: 33.7 GiB

Sinopsis

Descargar Star Wars: Episodio I (1999) REMUX 1080p Latino. La Federación de Comercio ha bloqueado el pequeño planeta de Naboo, gobernado por la joven Reina Amidala, como parte de un plan ideado por Sith Darth Sidious, que manteniéndose en el anonimato dirige a los neimoidianos, que están al mando de la Federación. Amidala es convencida por los Jedis Qui-Gon Jinn y su aprendiz, o padawan, Obi-Wan Kenobi a viajar hasta Coruscant, capital de la República y sede del Consejo Jedi para intentar mediar esta amenaza. Pero esquivando el bloqueo, la nave real resulta dañada, obligando a la tripulación a aterrizar en el desértico y remoto planeta de Tatooine…

Nota: Intro Con Textos En Español 🙂

Resubido para VIP!!!

Ficha técnica

Video trailer de la película

Enlaces de descarga

Rip de Bluray

Descargar Star Wars: Episodio I (1999) REMUX 1080p Latino




Aportes de DPeliculasHDmega la pass es:dpeliculashdmega.org Aportes de CinemaniaHD la pass es:cinemaniahdd.com
Guardado en : Acción , Aventura , Ciencia ficción , Remux

Películas relacionadas

descargar Star Wars: Episodio I (1999) REMUX 1080p Latino Full 1080p 1080p gratis, Star Wars: Episodio I (1999) REMUX 1080p Latino Full 1080p mega 1 link, Star Wars: Episodio I (1999) REMUX 1080p Latino Full 1080p pelicula completa, descargar Star Wars: Episodio I (1999) REMUX 1080p Latino Full 1080p gratis en mega.

Star Wars: Episodio I (1999) REMUX 1080p Latino pelicula full hd, Star Wars: Episodio I (1999) REMUX 1080p Latino mega latino, Star Wars: Episodio I (1999) REMUX 1080p Latino 4k latino, Star Wars: Episodio I (1999) REMUX 1080p Latino pelicula completa, Star Wars: Episodio I (1999) REMUX 1080p Latino descargar gratis, descargar Star Wars: Episodio I (1999) REMUX 1080p Latino pelicula latino, Star Wars: Episodio I (1999) REMUX 1080p Latino 1 link mega, Star Wars: Episodio I (1999) REMUX 1080p Latino 1 link google drive, Star Wars: Episodio I (1999) REMUX 1080p Latino hd 1080p latino.
Comentarios 0