×

¿Problemas para descargar con Mozilla, EDGE? Deshabilita la opción "Abrir vinculos en una pestaña nueva" tal como lo muestra ésta imagen.

Star Wars: Episodio VII (2015) 1080p Latino

437 vistas

Información de Star Wars: Episodio VII (2015) 1080p Latino

Datos de la película

  • Calidad: 1080p
  • Audio: Español Latino AC3 5.1 BLURAY - Ingles AC3 5.1 BLURAY
  • Subtitulos: Español Latino SRT - Ingles SRT
  • Resolución: 1920x800p
  • Formato: MKV
  • Codec: H.264
  • Encoder: CinefiloCool
  • Mediainfo: Clic para Mostrar Datos Ver
  • Star Wars Episodio VII (2015) 1080p Latino-CMHDD.mkv
    Format                      : Matroska
    Format version              : Version 4
    File size                   : 4.43 GiB
    Duration                    : 2 h 18 min
    Overall bit rate            : 4 590 kb/s
    Movie name                  : El Despertar De La Fuerza (2015) CinemaniaHDD.Net
    Encoded date                : UTC 2020-04-27 23:17:12
    Writing application         : mkvmerge v42.0.0 ('Overtime') 64-bit
    Writing library             : libebml v1.3.10 + libmatroska v1.5.2
    Attachments                 : CINEMANIAHD.png

    Video
    ID                          : 1
    Format                      : AVC
    Format/Info                 : Advanced Video Codec
    Format profile              : High@L4.1
    Format settings             : CABAC / 5 Ref Frames
    Format settings, CABAC      : Yes
    Format settings, ReFrames   : 5 frames
    Codec ID                    : V_MPEG4/ISO/AVC
    Duration                    : 2 h 18 min
    Bit rate                    : 3 500 kb/s
    Width                       : 1 920 pixels
    Height                      : 800 pixels
    Display aspect ratio        : 2.40:1
    Frame rate mode             : Constant
    Frame rate                  : 23.976 (24000/1001) FPS
    Color space                 : YUV
    Chroma subsampling          : 4:2:0
    Bit depth                   : 8 bits
    Scan type                   : Progressive
    Bits/(Pixel*Frame)          : 0.095
    Stream size                 : 3.38 GiB (76%)
    Title                       : HD1080p [CinemaniaHDD]
    Writing library             : x264 core 157 r2935 545de2f
    Encoding settings           : cabac=1 / ref=5 / deblock=1:0:0 / analyse=0x3:0x133 / me=umh / subme=9 / psy=1 / psy_rd=1.00:0.00 / mixed_ref=1 / me_range=16 / chroma_me=1 / trellis=2 / 8x8dct=1 / cqm=0 / deadzone=21,11 / fast_pskip=1 / chroma_qp_offset=-2 / threads=25 / lookahead_threads=2 / sliced_threads=0 / nr=0 / decimate=1 / interlaced=0 / bluray_compat=0 / constrained_intra=0 / bframes=3 / b_pyramid=2 / b_adapt=2 / b_bias=0 / direct=3 / weightb=1 / open_gop=0 / weightp=2 / keyint=240 / keyint_min=24 / scenecut=40 / intra_refresh=0 / rc_lookahead=60 / rc=2pass / mbtree=1 / bitrate=3500 / ratetol=1.0 / qcomp=0.60 / qpmin=0 / qpmax=69 / qpstep=4 / cplxblur=20.0 / qblur=0.5 / vbv_maxrate=62500 / vbv_bufsize=78125 / nal_hrd=none / filler=0 / ip_ratio=1.40 / aq=1:1.00
    Default                     : Yes
    Forced                      : Yes
    Color range                 : Limited
    Color primaries             : BT.709
    Transfer characteristics    : BT.709
    Matrix coefficients         : BT.709

    Audio #1
    ID                          : 2
    Format                      : AC-3
    Format/Info                 : Audio Coding 3
    Commercial name             : Dolby Digital
    Codec ID                    : A_AC3
    Duration                    : 2 h 18 min
    Bit rate mode               : Constant
    Bit rate                    : 640 kb/s
    Channel(s)                  : 6 channels
    Channel layout              : L R C LFE Ls Rs
    Sampling rate               : 48.0 kHz
    Frame rate                  : 31.250 FPS (1536 SPF)
    Bit depth                   : 16 bits
    Compression mode            : Lossy
    Delay relative to video     : -5 ms
    Stream size                 : 632 MiB (14%)
    Title                       : Español Latino [CinemaniaHDD]
    Language                    : Spanish
    Service kind                : Complete Main
    Default                     : Yes
    Forced                      : Yes

    Audio #2
    ID                          : 3
    Format                      : AC-3
    Format/Info                 : Audio Coding 3
    Commercial name             : Dolby Digital
    Codec ID                    : A_AC3
    Duration                    : 2 h 18 min
    Bit rate mode               : Constant
    Bit rate                    : 448 kb/s
    Channel(s)                  : 6 channels
    Channel layout              : L R C LFE Ls Rs
    Sampling rate               : 48.0 kHz
    Frame rate                  : 31.250 FPS (1536 SPF)
    Bit depth                   : 16 bits
    Compression mode            : Lossy
    Delay relative to video     : -5 ms
    Stream size                 : 443 MiB (10%)
    Title                       : Ingles [CinemaniaHDD]
    Language                    : English
    Service kind                : Complete Main
    Default                     : No
    Forced                      : No

    Text #1
    ID                          : 4
    Format                      : UTF-8
    Codec ID                    : S_TEXT/UTF8
    Codec ID/Info               : UTF-8 Plain Text
    Duration                    : 2 h 2 min
    Bit rate                    : 1 b/s
    Count of elements           : 55
    Stream size                 : 1.51 KiB (0%)
    Title                       : Forzados-SRT [CinemaniaHDD]
    Language                    : Spanish
    Default                     : Yes
    Forced                      : Yes

    Text #2
    ID                          : 5
    Format                      : UTF-8
    Codec ID                    : S_TEXT/UTF8
    Codec ID/Info               : UTF-8 Plain Text
    Duration                    : 2 h 0 min
    Bit rate                    : 41 b/s
    Count of elements           : 1302
    Stream size                 : 36.9 KiB (0%)
    Title                       : Español-SRT [CinemaniaHDD]
    Language                    : Spanish
    Default                     : No
    Forced                      : No

    Text #3
    ID                          : 6
    Format                      : UTF-8
    Codec ID                    : S_TEXT/UTF8
    Codec ID/Info               : UTF-8 Plain Text
    Duration                    : 2 h 6 min
    Bit rate                    : 74 b/s
    Count of elements           : 1778
    Stream size                 : 69.6 KiB (0%)
    Title                       : Ingles-SRT [CinemaniaHDD]
    Language                    : English
    Default                     : No
    Forced                      : No

    Menu
    00:00:00.000                : en:Opening Logo
    00:00:09.259                : en:The Force Awakens
    00:01:43.061                : en:The First Order Approaches
    00:03:51.856                : en:Village Raid
    00:06:12.288                : en:Kylo Ren
    00:09:33.948                : en:FN-2187
    00:10:43.559                : en:Rey
    00:12:35.713                : en:Niima Outpost
    00:13:39.693                : en:Rey at Home
    00:14:48.220                : en:Saving BB-8
    00:16:45.921                : en:Interrogation
    00:18:04.583                : en:Unkar's Offer
    00:19:21.535                : en:Jailbreak
    00:21:26.618                : en:The Fighter Escape
    00:24:03.650                : en:Marooned on Jakku
    00:26:47.022                : en:Crossing Paths
    00:29:54.667                : en:Marketplace Chase
    00:31:49.324                : en:The Falcon Flies Again
    00:35:51.774                : en:Introductions
    00:36:40.615                : en:Kylo Is Updated
    00:37:45.513                : en:Fixing the Falcon
    00:40:19.250                : en:"Chewie, We're Home"
    00:43:39.199                : en:Corellan Standoff
    00:45:29.560                : en:Rathtar Mayhem
    00:49:22.918                : en:Supreme Leader
    00:51:19.951                : en:"It's All True"
    00:54:13.750                : en:Meeting Maz
    00:59:48.793                : en:Discussions of Destinies
    01:04:16.060                : en:Visions in the Force
    01:08:37.238                : en:Starkiller
    01:11:07.221                : en:First Order Invasion
    01:15:16.386                : en:Resistance to the Rescue
    01:16:49.896                : en:Kylo Finds Rey
    01:19:37.522                : en:Reunion
    01:20:56.893                : en:Resistance Base
    01:25:36.172                : en:Rey Imprisoned
    01:32:12.568                : en:Resistance Briefing
    01:35:29.014                : en:Starkiller Landing
    01:36:34.955                : en:Base Infiltration
    01:39:28.629                : en:X-Wing Attack
    01:41:29.958                : en:Rejoining Rey
    01:42:57.504                : en:Into the Oscillator
    01:45:00.002                : en:Father and Son
    01:50:33.710                : en:Dark Forest
    01:53:39.771                : en:Oscillator Breached
    01:55:22.165                : en:Forest Duel
    01:58:05.453                : en:Cataclysm
    02:01:05.591                : en:Made Whole
    02:02:32.678                : en:Finding the Master
    02:07:07.578                : en:End Credits

  • Peso: 4.43 GiB

Sinopsis

Descargar Star Wars: Episodio VII (2015) 1080p Latino. Treinta años después de la victoria de la Alianza Rebelde sobre la segunda Estrella de la Muerte (hechos narrados en el Episodio VI: El retorno del Jedi), la galaxia está todavía en guerra. Una nueva República se ha constituido, pero una siniestra organización, la Primera Orden, ha resurgido de las cenizas del Imperio Galáctico. A los héroes de antaño, que luchan ahora en la Resistencia, se suman nuevos héroes: Poe Dameron, un piloto de caza, Finn, un desertor de la Primera Orden, Rey, una joven chatarrera, y BB-8, un androide rodante. Todos ellos luchan contra las fuerzas del Mal: el Capitán Phasma, de la Primera Orden, y Kylo Ren, un temible y misterioso personaje que empuña un sable de luz roja.

Nota: Intro Con Textos En Español 🙂

Ficha técnica

Video trailer de la película

Enlaces de descarga

Rip de Bluray

Descargar Star Wars: Episodio VII (2015) 1080p Latino




Aportes de DPeliculasHDmega la pass es:dpeliculashdmega.org Aportes de CinemaniaHD la pass es:cinemaniahdd.com

Películas relacionadas

descargar Star Wars: Episodio VII (2015) 1080p Latino 1080p 1080p gratis, Star Wars: Episodio VII (2015) 1080p Latino 1080p mega 1 link, Star Wars: Episodio VII (2015) 1080p Latino 1080p pelicula completa, descargar Star Wars: Episodio VII (2015) 1080p Latino 1080p gratis en mega.

Star Wars: Episodio VII (2015) 1080p Latino pelicula full hd, Star Wars: Episodio VII (2015) 1080p Latino mega latino, Star Wars: Episodio VII (2015) 1080p Latino 4k latino, Star Wars: Episodio VII (2015) 1080p Latino pelicula completa, Star Wars: Episodio VII (2015) 1080p Latino descargar gratis, descargar Star Wars: Episodio VII (2015) 1080p Latino pelicula latino, Star Wars: Episodio VII (2015) 1080p Latino 1 link mega, Star Wars: Episodio VII (2015) 1080p Latino 1 link google drive, Star Wars: Episodio VII (2015) 1080p Latino hd 1080p latino.
Comentarios 0