×

¿Problemas para descargar con Mozilla, EDGE? Deshabilita la opción "Abrir vinculos en una pestaña nueva" tal como lo muestra ésta imagen.

Star Wars: Episodio V (1980) 1080p Latino

527 vistas

Información de Star Wars: Episodio V (1980) 1080p Latino

Datos de la película

  • Calidad: 1080p
  • Audio: Español Latino AC3 5.1 BLURAY - Ingles AC3 5.1 BLURAY
  • Subtitulos: Español Latino SRT - Ingles SRT
  • Resolución: 1920x816p
  • Formato: MKV
  • Codec: H.264
  • Encoder: CinefiloCool
  • Mediainfo: Clic para Mostrar Datos Ver
  • Star Wars Episodio V (1980) 1080p Latino-CMHDD.mkv
    Format                      : Matroska
    Format version              : Version 4
    File size                   : 3.91 GiB
    Duration                    : 2 h 7 min
    Overall bit rate            : 4 398 kb/s
    Movie name                  : El Imperio Contraataca (1980) CinemaniaHDD.Net
    Encoded date                : UTC 2020-04-21 20:58:59
    Writing application         : mkvmerge v42.0.0 ('Overtime') 64-bit
    Writing library             : libebml v1.3.10 + libmatroska v1.5.2
    Attachments                 : CINEMANIAHD.png

    Video
    ID                          : 1
    Format                      : AVC
    Format/Info                 : Advanced Video Codec
    Format profile              : High@L4.1
    Format settings             : CABAC / 5 Ref Frames
    Format settings, CABAC      : Yes
    Format settings, ReFrames   : 5 frames
    Codec ID                    : V_MPEG4/ISO/AVC
    Duration                    : 2 h 7 min
    Bit rate                    : 3 500 kb/s
    Width                       : 1 920 pixels
    Height                      : 816 pixels
    Display aspect ratio        : 2.35:1
    Frame rate mode             : Constant
    Frame rate                  : 23.976 (24000/1001) FPS
    Color space                 : YUV
    Chroma subsampling          : 4:2:0
    Bit depth                   : 8 bits
    Scan type                   : Progressive
    Bits/(Pixel*Frame)          : 0.093
    Stream size                 : 3.11 GiB (80%)
    Title                       : HD1080p [CinemaniaHDD]
    Writing library             : x264 core 157 r2935 545de2f
    Encoding settings           : cabac=1 / ref=5 / deblock=1:-2:-2 / analyse=0x3:0x133 / me=umh / subme=9 / psy=1 / psy_rd=1.00:0.25 / mixed_ref=1 / me_range=16 / chroma_me=1 / trellis=2 / 8x8dct=1 / cqm=0 / deadzone=6,6 / fast_pskip=1 / chroma_qp_offset=-4 / threads=25 / lookahead_threads=2 / sliced_threads=0 / nr=0 / decimate=0 / interlaced=0 / bluray_compat=0 / constrained_intra=0 / bframes=3 / b_pyramid=2 / b_adapt=2 / b_bias=0 / direct=3 / weightb=1 / open_gop=0 / weightp=2 / keyint=240 / keyint_min=24 / scenecut=40 / intra_refresh=0 / rc_lookahead=60 / rc=2pass / mbtree=1 / bitrate=3500 / ratetol=1.0 / qcomp=0.80 / qpmin=0 / qpmax=69 / qpstep=4 / cplxblur=20.0 / qblur=0.5 / vbv_maxrate=62500 / vbv_bufsize=78125 / nal_hrd=none / filler=0 / ip_ratio=1.10 / aq=1:0.50
    Default                     : Yes
    Forced                      : Yes
    Color range                 : Limited
    Color primaries             : BT.709
    Transfer characteristics    : BT.709
    Matrix coefficients         : BT.709

    Audio #1
    ID                          : 2
    Format                      : AC-3
    Format/Info                 : Audio Coding 3
    Commercial name             : Dolby Digital
    Codec ID                    : A_AC3
    Duration                    : 2 h 7 min
    Bit rate mode               : Constant
    Bit rate                    : 448 kb/s
    Channel(s)                  : 6 channels
    Channel layout              : L R C LFE Ls Rs
    Sampling rate               : 48.0 kHz
    Frame rate                  : 31.250 FPS (1536 SPF)
    Bit depth                   : 16 bits
    Compression mode            : Lossy
    Delay relative to video     : -5 ms
    Stream size                 : 408 MiB (10%)
    Title                       : Español Latino [CinemaniaHDD]
    Language                    : Spanish
    Service kind                : Complete Main
    Default                     : Yes
    Forced                      : Yes

    Audio #2
    ID                          : 3
    Format                      : AC-3
    Format/Info                 : Audio Coding 3
    Commercial name             : Dolby Digital
    Codec ID                    : A_AC3
    Duration                    : 2 h 7 min
    Bit rate mode               : Constant
    Bit rate                    : 448 kb/s
    Channel(s)                  : 6 channels
    Channel layout              : L R C LFE Ls Rs
    Sampling rate               : 48.0 kHz
    Frame rate                  : 31.250 FPS (1536 SPF)
    Bit depth                   : 16 bits
    Compression mode            : Lossy
    Delay relative to video     : -5 ms
    Stream size                 : 408 MiB (10%)
    Title                       : Ingles [CinemaniaHDD]
    Language                    : English
    Service kind                : Complete Main
    Default                     : No
    Forced                      : No

    Text #1
    ID                          : 4
    Format                      : UTF-8
    Codec ID                    : S_TEXT/UTF8
    Codec ID/Info               : UTF-8 Plain Text
    Duration                    : 1 h 57 min
    Bit rate                    : 38 b/s
    Count of elements           : 1099
    Stream size                 : 32.8 KiB (0%)
    Title                       : Español-SRT [CinemaniaHDD]
    Language                    : Spanish
    Default                     : No
    Forced                      : No

    Text #2
    ID                          : 5
    Format                      : UTF-8
    Codec ID                    : S_TEXT/UTF8
    Codec ID/Info               : UTF-8 Plain Text
    Duration                    : 1 h 57 min
    Bit rate                    : 46 b/s
    Count of elements           : 1133
    Stream size                 : 39.6 KiB (0%)
    Title                       : Ingles-SRT [CinemaniaHDD]
    Language                    : English
    Default                     : No
    Forced                      : No

    Menu
    00:00:00.000                : en:Opening Logos
    00:00:21.104                : en:The Empire Strikes Back
    00:01:54.865                : en:Ice Planet Hoth
    00:04:15.839                : en:The Rebel Base
    00:08:19.249                : en:Escape From the Wampa
    00:10:15.949                : en:Closing the Doors
    00:12:57.735                : en:Obi-Wan's Instructions
    00:15:13.538                : en:Search Party
    00:16:29.697                : en:Luke's Recovery
    00:18:19.974                : en:Imperial Probe Droid
    00:19:45.393                : en:The Imperial Fleet
    00:21:22.698                : en:Preparing for Battle
    00:23:57.728                : en:First Transport Away
    00:25:49.423                : en:Battle in the Snow
    00:29:29.351                : en:The Tide Turns
    00:31:29.221                : en:Rebels in Retreat
    00:33:37.682                : en:Escape Aboard the Falcon
    00:35:55.153                : en:Leaving for Dagobah
    00:36:51.251                : en:The Empire in Pursuit
    00:38:33.561                : en:Asteroid Field
    00:40:36.726                : en:Crash Landing on Dagobah
    00:44:20.074                : en:Hunting the Falcon
    00:46:08.391                : en:"Found Someone, You Have"
    00:50:13.385                : en:Interrupted Kiss
    00:52:16.633                : en:The Emperor's Message
    00:54:20.257                : en:Yoda's Hut
    00:57:40.290                : en:"This is No Cave"
    01:00:57.946                : en:Jedi Training
    01:03:42.777                : en:Failure at the Cave
    01:05:46.109                : en:Bounty Hunters
    01:08:12.171                : en:There is No Try
    01:13:24.233                : en:Out With the Garbage
    01:16:39.887                : en:Seeing the Future
    01:18:24.116                : en:City in the Clouds
    01:19:45.864                : en:Meeting Lando
    01:22:55.929                : en:Leaving Dagobah
    01:25:38.550                : en:Leia's Concerns
    01:27:51.266                : en:Imperial Surprise
    01:30:28.673                : en:The Deal Gets Worse
    01:34:39.799                : en:Carbon Freeze
    01:38:28.903                : en:Luke Enters the Trap
    01:40:26.145                : en:Confronting the Dark Lord
    01:41:46.100                : en:Lando's Second Surprise
    01:43:51.434                : en:Lightsaber Duel
    01:47:02.541                : en:Escape From Cloud City
    01:49:21.472                : en:Vader's Revelation
    01:53:41.690                : en:Falcon to the Rescue
    01:56:14.843                : en:The Empire Closes In
    01:59:46.596                : en:The Rebel Fleet
    02:01:58.228                : en:End Credits

  • Peso: 3.91 GiB

Sinopsis

Descargar Star Wars: Episodio V (1980) 1080p Latino. Tras un ataque sorpresa de las tropas imperiales a las bases camufladas de la alianza rebelde, Luke Skywalker, en compañía de R2D2, parte hacia el planeta Dagobah en busca de Yoda, el último maestro Jedi, para que le enseñe los secretos de la Fuerza. Mientras, Han Solo, la princesa Leia, Chewbacca, y C3PO esquivan a las fuerzas imperiales y piden refugio al antiguo propietario del Halcón Milenario, Lando Calrissian, en la ciudad minera de Bespin, donde les prepara una trampa urdida por Darth Vader.

Nota: Intro Con Textos En Español 🙂

Ficha técnica

Video trailer de la película

Enlaces de descarga

Rip de Bluray

Descargar Star Wars: Episodio V (1980) 1080p Latino




Aportes de DPeliculasHDmega la pass es:dpeliculashdmega.org Aportes de CinemaniaHD la pass es:cinemaniahdd.com

Películas relacionadas

descargar Star Wars: Episodio V (1980) 1080p Latino 1080p 1080p gratis, Star Wars: Episodio V (1980) 1080p Latino 1080p mega 1 link, Star Wars: Episodio V (1980) 1080p Latino 1080p pelicula completa, descargar Star Wars: Episodio V (1980) 1080p Latino 1080p gratis en mega.

Star Wars: Episodio V (1980) 1080p Latino pelicula full hd, Star Wars: Episodio V (1980) 1080p Latino mega latino, Star Wars: Episodio V (1980) 1080p Latino 4k latino, Star Wars: Episodio V (1980) 1080p Latino pelicula completa, Star Wars: Episodio V (1980) 1080p Latino descargar gratis, descargar Star Wars: Episodio V (1980) 1080p Latino pelicula latino, Star Wars: Episodio V (1980) 1080p Latino 1 link mega, Star Wars: Episodio V (1980) 1080p Latino 1 link google drive, Star Wars: Episodio V (1980) 1080p Latino hd 1080p latino.
Comentarios 0