Star Wars: Episodio V (1980) Full HD 1080p Latino

2.623 vistas
1 estrella2 estrellas3 estrellas4 estrellas5 estrellas (6 votos, promedio: 4,33 de 5)
Cargando...

Información de Star Wars: Episodio V (1980) Full HD 1080p Latino

Datos de la película

  • Calidad: Full 1080p
  • Audio: Español Latino AC3 5.1 BLURAY - Ingles DTS 5.1 BLURAY
  • Subtitulos: Español Latino PGS - Ingles PGS
  • Resolución: 1920x1080p
  • Formato: MKV
  • Codec: H.264
  • Encoder: CinefiloCool
  • Mediainfo: Clic para Mostrar Datos Ver
  • Star Wars Episodio V (1980) Full HD 1080p Latino-CMHDD.mkv
    Format                      : Matroska
    Format version              : Version 4
    File size                   : 9.67 GiB
    Duration                    : 2 h 7 min
    Overall bit rate mode       : Variable
    Overall bit rate            : 10.9 Mb/s
    Movie name                  : El Imperio Contraataca (1980) CinemaniaHDD.Net
    Encoded date                : UTC 2020-04-21 21:05:24
    Writing application         : mkvmerge v42.0.0 ('Overtime') 64-bit
    Writing library             : libebml v1.3.10 + libmatroska v1.5.2
    Attachments                 : CINEMANIAHD.png

    Video
    ID                          : 1
    Format                      : AVC
    Format/Info                 : Advanced Video Codec
    Format profile              : High@L4.1
    Format settings             : CABAC / 4 Ref Frames
    Format settings, CABAC      : Yes
    Format settings, ReFrames   : 4 frames
    Codec ID                    : V_MPEG4/ISO/AVC
    Duration                    : 2 h 7 min
    Bit rate                    : 5 820 kb/s
    Width                       : 1 920 pixels
    Height                      : 1 080 pixels
    Display aspect ratio        : 16:9
    Frame rate mode             : Constant
    Frame rate                  : 23.976 (24000/1001) FPS
    Color space                 : YUV
    Chroma subsampling          : 4:2:0
    Bit depth                   : 8 bits
    Scan type                   : Progressive
    Bits/(Pixel*Frame)          : 0.117
    Stream size                 : 5.18 GiB (54%)
    Title                       : Full HD1080p [CinemaniaHDD]
    Writing library             : x264 core 157 r2935 545de2f
    Encoding settings           : cabac=1 / ref=4 / deblock=1:0:0 / analyse=0x3:0x133 / me=tesa / subme=11 / psy=1 / psy_rd=1.00:0.00 / mixed_ref=1 / me_range=24 / chroma_me=1 / trellis=2 / 8x8dct=1 / cqm=0 / deadzone=21,11 / fast_pskip=0 / chroma_qp_offset=-2 / threads=34 / lookahead_threads=8 / sliced_threads=0 / nr=0 / decimate=1 / interlaced=0 / bluray_compat=0 / constrained_intra=0 / bframes=16 / b_pyramid=2 / b_adapt=2 / b_bias=0 / direct=3 / weightb=1 / open_gop=0 / weightp=2 / keyint=240 / keyint_min=24 / scenecut=40 / intra_refresh=0 / rc_lookahead=60 / rc=crf / mbtree=1 / crf=20.0 / qcomp=0.60 / qpmin=0 / qpmax=69 / qpstep=4 / vbv_maxrate=62500 / vbv_bufsize=78125 / crf_max=0.0 / nal_hrd=none / filler=0 / ip_ratio=1.40 / aq=1:1.00
    Default                     : Yes
    Forced                      : Yes
    Color range                 : Limited
    Color primaries             : BT.709
    Transfer characteristics    : BT.709
    Matrix coefficients         : BT.709

    Audio #1
    ID                          : 2
    Format                      : AC-3
    Format/Info                 : Audio Coding 3
    Commercial name             : Dolby Digital
    Codec ID                    : A_AC3
    Duration                    : 2 h 7 min
    Bit rate mode               : Constant
    Bit rate                    : 448 kb/s
    Channel(s)                  : 6 channels
    Channel layout              : L R C LFE Ls Rs
    Sampling rate               : 48.0 kHz
    Frame rate                  : 31.250 FPS (1536 SPF)
    Bit depth                   : 16 bits
    Compression mode            : Lossy
    Stream size                 : 408 MiB (4%)
    Title                       : Español Latino [CinemaniaHDD]
    Language                    : Spanish
    Service kind                : Complete Main
    Default                     : Yes
    Forced                      : Yes

    Audio #2
    ID                          : 3
    Format                      : DTS ES XXCH XLL
    Format/Info                 : Digital Theater Systems
    Commercial name             : DTS-HD Master Audio
    Codec ID                    : A_DTS
    Duration                    : 2 h 7 min
    Bit rate mode               : Variable
    Bit rate                    : 4 564 kb/s
    Channel(s)                  : 7 channels
    Channel layout              : C L R Ls Rs LFE Cb
    Sampling rate               : 48.0 kHz
    Frame rate                  : 93.750 FPS (512 SPF)
    Bit depth                   : 24 bits
    Compression mode            : Lossless
    Stream size                 : 4.06 GiB (42%)
    Title                       : Ingles [CinemaniaHDD]
    Language                    : English
    Default                     : No
    Forced                      : No

    Text #1
    ID                          : 4
    Format                      : PGS
    Muxing mode                 : zlib
    Codec ID                    : S_HDMV/PGS
    Codec ID/Info               : Picture based subtitle format used on BDs/HD-DVDs
    Duration                    : 2 h 7 min
    Bit rate                    : 35.0 kb/s
    Count of elements           : 2206
    Stream size                 : 31.9 MiB (0%)
    Title                       : Español-PGS [CinemaniaHDD]
    Language                    : Spanish
    Default                     : No
    Forced                      : No

    Text #2
    ID                          : 5
    Format                      : PGS
    Muxing mode                 : zlib
    Codec ID                    : S_HDMV/PGS
    Codec ID/Info               : Picture based subtitle format used on BDs/HD-DVDs
    Duration                    : 2 h 7 min
    Bit rate                    : 42.4 kb/s
    Count of elements           : 3106
    Stream size                 : 38.6 MiB (0%)
    Title                       : Ingles-PGS [CinemaniaHDD]
    Language                    : English
    Default                     : No
    Forced                      : No

    Text #3
    ID                          : 6
    Format                      : UTF-8
    Codec ID                    : S_TEXT/UTF8
    Codec ID/Info               : UTF-8 Plain Text
    Duration                    : 1 h 57 min
    Bit rate                    : 38 b/s
    Count of elements           : 1099
    Stream size                 : 32.8 KiB (0%)
    Title                       : Español-SRT [CinemaniaHDD]
    Language                    : Spanish
    Default                     : No
    Forced                      : No

    Menu
    00:00:00.000                : en:Opening Logos
    00:00:21.104                : en:The Empire Strikes Back
    00:01:54.865                : en:Ice Planet Hoth
    00:04:15.839                : en:The Rebel Base
    00:08:19.249                : en:Escape From the Wampa
    00:10:15.949                : en:Closing the Doors
    00:12:57.735                : en:Obi-Wan's Instructions
    00:15:13.538                : en:Search Party
    00:16:29.697                : en:Luke's Recovery
    00:18:19.974                : en:Imperial Probe Droid
    00:19:45.393                : en:The Imperial Fleet
    00:21:22.698                : en:Preparing for Battle
    00:23:57.728                : en:First Transport Away
    00:25:49.423                : en:Battle in the Snow
    00:29:29.351                : en:The Tide Turns
    00:31:29.221                : en:Rebels in Retreat
    00:33:37.682                : en:Escape Aboard the Falcon
    00:35:55.153                : en:Leaving for Dagobah
    00:36:51.251                : en:The Empire in Pursuit
    00:38:33.561                : en:Asteroid Field
    00:40:36.726                : en:Crash Landing on Dagobah
    00:44:20.074                : en:Hunting the Falcon
    00:46:08.391                : en:"Found Someone, You Have"
    00:50:13.385                : en:Interrupted Kiss
    00:52:16.633                : en:The Emperor's Message
    00:54:20.257                : en:Yoda's Hut
    00:57:40.290                : en:"This is No Cave"
    01:00:57.946                : en:Jedi Training
    01:03:42.777                : en:Failure at the Cave
    01:05:46.109                : en:Bounty Hunters
    01:08:12.171                : en:There is No Try
    01:13:24.233                : en:Out With the Garbage
    01:16:39.887                : en:Seeing the Future
    01:18:24.116                : en:City in the Clouds
    01:19:45.864                : en:Meeting Lando
    01:22:55.929                : en:Leaving Dagobah
    01:25:38.550                : en:Leia's Concerns
    01:27:51.266                : en:Imperial Surprise
    01:30:28.673                : en:The Deal Gets Worse
    01:34:39.799                : en:Carbon Freeze
    01:38:28.903                : en:Luke Enters the Trap
    01:40:26.145                : en:Confronting the Dark Lord
    01:41:46.100                : en:Lando's Second Surprise
    01:43:51.434                : en:Lightsaber Duel
    01:47:02.541                : en:Escape From Cloud City
    01:49:21.472                : en:Vader's Revelation
    01:53:41.690                : en:Falcon to the Rescue
    01:56:14.843                : en:The Empire Closes In
    01:59:46.596                : en:The Rebel Fleet
    02:01:58.228                : en:End Credits

  • Peso: 9,67 GiB

Sinopsis

Descargar Star Wars: Episodio V (1980) Full HD 1080p Latino. Tras un ataque sorpresa de las tropas imperiales a las bases camufladas de la alianza rebelde, Luke Skywalker, en compañía de R2D2, parte hacia el planeta Dagobah en busca de Yoda, el último maestro Jedi, para que le enseñe los secretos de la Fuerza. Mientras, Han Solo, la princesa Leia, Chewbacca, y C3PO esquivan a las fuerzas imperiales y piden refugio al antiguo propietario del Halcón Milenario, Lando Calrissian, en la ciudad minera de Bespin, donde les prepara una trampa urdida por Darth Vader.

Nota: Resubida y Actualizada, Intro Con Textos En Español 🙂

Ficha técnica

Video trailer de la película

Enlaces de descarga

Rip de Bluray

Descargar Star Wars: Episodio V (1980) Full HD 1080p Latino




Aportes de DPeliculasHDmega la pass es:dpeliculashdmega.org Aportes de CinemaniaHD la pass es:cinemaniahdd.com

Películas relacionadas

  • Viernes 13 Parte X: Jason X (2001) 1080p Latino

    Viernes 13 Parte X: Jason X (2001) 1080p Latino

    2001
    Viernes 13 Parte X: Jason X (2001) 1080p Latino

    0.0 1h 31m 2001

    Descargar Viernes 13 Parte X: Jason X (2001) 1080p Latino. En el año 2455, Old Earth es ahora un planeta...

    Director: Walter Gasparovic

    Género: Ciencia ficción

    Actores: Yani Gellman

  • The Debt Collector 2 (2020) Full HD 1080p Latino

    The Debt Collector 2 (2020) Full HD 1080p Latino

    2020
    The Debt Collector 2 (2020) Full HD 1080p Latino

    0.0 1h 37m 2020

    French y Sue trabajan en lo que mejor se les da -romper cráneos y aplastar huesos- mientras persiguen...

    Director: Jesse V. Johnson

    Género: Acción

    Actores: Vladimir Kulich

  • The Debt Collector 2 (2020) HD 1080p Latino

    The Debt Collector 2 (2020) HD 1080p Latino

    2020
    The Debt Collector 2 (2020) HD 1080p Latino

    0.0 1h 37m 2020

    French y Sue trabajan en lo que mejor se les da -romper cráneos y aplastar huesos- mientras persiguen...

    Director: Jesse V. Johnson

    Género: Acción

    Actores: Vladimir Kulich

  • The Debt Collector 2 (2020) REMUX 1080p Latino

    The Debt Collector 2 (2020) REMUX 1080p Latino

    2020
    The Debt Collector 2 (2020) REMUX 1080p Latino

    0.0 1h 37m 2020

    French y Sue trabajan en lo que mejor se les da -romper cráneos y aplastar huesos- mientras persiguen...

    Director: Jesse V. Johnson

    Género: Acción

    Actores: Vladimir Kulich

  • Viernes 13 (2009) Full HD 1080p Latino

    Viernes 13 (2009) Full HD 1080p Latino

    2009
    Viernes 13 (2009) Full HD 1080p Latino

    0.0 1h 37m 2009

    Descargar Viernes 13 (2009) Full HD 1080p Latino. Remake del clásico film de terror, dirigido en 1980...

    Director: Marcus Nispel

    Género: FULL 1080p Plateadas

    Actores: Willa Ford

Comentarios 3
  • cachar - 27 enero, 2018

    desde la pagina 3 para atras ya no se puede descargar te pide una cuenta de google drive lo puedes arreglar es del servidor google drive

    • Dracarys - 29 enero, 2018

      Tambien tienes el servidor de mega y 1fichier

  • percy - 05 enero, 2018

    holas , gracias por la peli aunque seria shevere con el audio antiguo latino de los 80 tas pero yo tengo esos audios lo subire por aca para quien los quiera