×

¿Problemas para descargar con Mozilla, EDGE? Deshabilita la opción "Abrir vinculos en una pestaña nueva" tal como lo muestra ésta imagen.

Star Wars Episodio IX: El ascenso de Skywalker (2019) 4K UHD HDR Web-DL Latino

4.564 vistas

Información de Star Wars Episodio IX: El ascenso de Skywalker (2019) 4K UHD HDR Web-DL Latino

Datos de la película

  • Calidad: WEBDL
  • Audio: Se especifica abajo de la Sinopsis
  • Subtitulos: Español Latino SRT - Ingles SRT
  • Resolución: 3840x1600p
  • Formato: MKV
  • Codec: HEVC
  • Encoder: CinefiloCool
  • Mediainfo: Clic para Mostrar Datos Ver
  • Star Wars Episodio IX (2019) UHD HDR Web-DL Latino-CMHDD.mkv
    Format                      : Matroska
    Format version              : Version 4
    File size                   : 25.1 GiB
    Duration                    : 2 h 21 min
    Overall bit rate            : 25.3 Mb/s
    Movie name                  : Star Wars Episodio IX (2019) CinemaniaHDD.Net
    Encoded date                : UTC 2020-03-15 04:59:45
    Writing application         : mkvmerge v42.0.0 ('Overtime') 64-bit
    Writing library             : libebml v1.3.10 + libmatroska v1.5.2
    Attachments                 : CINEMANIAHD.png

    Video
    ID                          : 1
    Format                      : HEVC
    Format/Info                 : High Efficiency Video Coding
    Commercial name             : HDR10
    Format profile              : Main 10@L5@Main
    Codec ID                    : V_MPEGH/ISO/HEVC
    Duration                    : 2 h 21 min
    Bit rate                    : 24.5 Mb/s
    Width                       : 3 840 pixels
    Height                      : 1 600 pixels
    Display aspect ratio        : 2.40:1
    Frame rate mode             : Constant
    Frame rate                  : 23.976 (24000/1001) FPS
    Standard                    : NTSC
    Color space                 : YUV
    Chroma subsampling          : 4:2:0 (Type 2)
    Bit depth                   : 10 bits
    Bits/(Pixel*Frame)          : 0.166
    Stream size                 : 24.2 GiB (97%)
    Title                       : 2160p HDR [Web]
    Default                     : Yes
    Forced                      : Yes
    Color range                 : Limited
    Color primaries             : BT.2020
    Transfer characteristics    : PQ
    Matrix coefficients         : BT.2020 non-constant
    Mastering display color pri : Display P3
    Mastering display luminance : min: 0.0001 cd/m2, max: 1000 cd/m2
    Maximum Content Light Level : 717 cd/m2
    Maximum Frame-Average Light : 642 cd/m2

    Audio #1
    ID                          : 2
    Format                      : AC-3
    Format/Info                 : Audio Coding 3
    Commercial name             : Dolby Digital
    Codec ID                    : A_AC3
    Duration                    : 2 h 21 min
    Bit rate mode               : Constant
    Bit rate                    : 256 kb/s
    Channel(s)                  : 2 channels
    Channel layout              : L R
    Sampling rate               : 48.0 kHz
    Frame rate                  : 31.250 FPS (1536 SPF)
    Bit depth                   : 16 bits
    Compression mode            : Lossy
    Stream size                 : 260 MiB (1%)
    Title                       : AC3_2.0_Web_Esp
    Language                    : Spanish
    Service kind                : Complete Main
    Default                     : Yes
    Forced                      : Yes

    Audio #2
    ID                          : 3
    Format                      : E-AC-3 JOC
    Format/Info                 : Enhanced AC-3 with Joint Object Coding
    Commercial name             : Dolby Digital Plus with Dolby Atmos
    Codec ID                    : A_EAC3
    Duration                    : 2 h 21 min
    Bit rate mode               : Constant
    Bit rate                    : 576 kb/s
    Channel(s)                  : 6 channels
    Channel layout              : L R C LFE Ls Rs
    Sampling rate               : 48.0 kHz
    Frame rate                  : 31.250 FPS (1536 SPF)
    Compression mode            : Lossy
    Stream size                 : 584 MiB (2%)
    Title                       : DDP_5.1_Web_Eng
    Language                    : English
    Service kind                : Complete Main
    Default                     : No
    Forced                      : No
    Complexity index            : 16
    Number of dynamic objects   : 15
    Bed channel count           : 1 channel
    Bed channel configuration   : LFE

    Text #1
    ID                          : 4
    Format                      : UTF-8
    Codec ID                    : S_TEXT/UTF8
    Codec ID/Info               : UTF-8 Plain Text
    Duration                    : 1 h 37 min
    Bit rate                    : 0 b/s
    Count of elements           : 11
    Stream size                 : 591 Bytes (0%)
    Title                       : Sub_Forzados
    Language                    : Spanish
    Default                     : Yes
    Forced                      : Yes

    Text #2
    ID                          : 5
    Format                      : UTF-8
    Codec ID                    : S_TEXT/UTF8
    Codec ID/Info               : UTF-8 Plain Text
    Duration                    : 2 h 11 min
    Bit rate                    : 42 b/s
    Count of elements           : 1450
    Stream size                 : 40.9 KiB (0%)
    Title                       : Sub_Esp
    Language                    : Spanish
    Default                     : No
    Forced                      : No

    Text #3
    ID                          : 6
    Format                      : UTF-8
    Codec ID                    : S_TEXT/UTF8
    Codec ID/Info               : UTF-8 Plain Text
    Duration                    : 2 h 8 min
    Bit rate                    : 40 b/s
    Count of elements           : 1530
    Stream size                 : 38.0 KiB (0%)
    Title                       : Sub_Eng
    Language                    : English
    Default                     : No
    Forced                      : No

    Menu
    00:00:00.000                : en:Studio Logo
    00:00:08.000                : en:Prologue
    00:01:44.000                : en:Kylo's search across the galaxy
    00:06:42.000                : en:Retrieving a secret message
    00:10:03.000                : en:Rey continues her training
    00:13:40.000                : en:Time for a new mission
    00:19:24.000                : en:Kylo prepares his officers
    00:21:23.000                : en:The desert of Pasana
    00:25:10.000                : en:Meeting an old ally
    00:27:14.000                : en:Racing through the desert
    00:30:41.000                : en:Optimism
    00:31:04.000                : en:Exploring old Sith tunnels
    00:35:48.000                : en:Tragedy in the desert
    00:41:37.000                : en:A new plan
    00:45:28.000                : en:A trip to Kjimi
    00:50:37.000                : en:The location of the last Sith Wayfinder
    00:55:42.000                : en:Rescuing Chewie
    00:58:48.000                : en:The truth about Rey's parents
    01:02:18.000                : en:A spy in the First Order
    01:06:22.000                : en:The search for Exegol continues
    01:13:30.000                : en:The last Sith Wayfinder
    01:17:55.000                : en:Leia's final mission
    01:24:30.000                : en:Kylo Ren vs. Ben Solo
    01:27:01.000                : en:The Final Order Begins
    01:30:22.000                : en:Some things are stronger than blood
    01:35:00.000                : en:A last stand for the galaxy
    01:38:47.000                : en:The battle begins
    01:43:02.000                : en:Palpatine welcomes Rey
    01:45:27.000                : en:Attacking the navigation tower
    01:47:01.000                : en:The last hope
    01:53:27.000                : en:Stronger together
    01:55:30.000                : en:The Force will be with you, always
    02:00:13.000                : en:A rescue mission
    02:01:37.000                : en:The true meaning of sacrifice
    02:06:35.000                : en:Celebration
    02:09:42.000                : en:A final resting place
    02:12:25.000                : en:End Credits

  • Peso: 25.1 GiB

Sinopsis

Descargar Star Wars Episodio IX: El ascenso de Skywalker (2019) 4K UHD HDR Web-DL Latino. Un año después de los eventos de «Los últimos Jedi», los restos de la Resistencia se enfrentarán una vez más a la Primera Orden, involucrando conflictos del pasado y del presente. Mientras tanto, el antiguo conflicto entre los Jedi y los Sith llegará a su clímax, lo que llevará a la saga de los Skywalker a un final definitivo. Final de la trilogía iniciada con «El despertar de la Fuerza».

Audio Español Latino AC3 2.0 Itunes – Ingles EAC3 Joc (With Atmos) 5.1 Web-DL

Ficha técnica

Video trailer de la película

Enlaces de descarga

Rip de Bluray

Descargar Star Wars Episodio IX: El ascenso de Skywalker (2019) 4K UHD HDR Web-DL Latino




Aportes de DPeliculasHDmega la pass es:dpeliculashdmega.org Aportes de CinemaniaHD la pass es:cinemaniahdd.com

Películas relacionadas

descargar Star Wars Episodio IX: El ascenso de Skywalker (2019) 4K UHD HDR Web-DL Latino WEBDL 1080p gratis, Star Wars Episodio IX: El ascenso de Skywalker (2019) 4K UHD HDR Web-DL Latino WEBDL mega 1 link, Star Wars Episodio IX: El ascenso de Skywalker (2019) 4K UHD HDR Web-DL Latino WEBDL pelicula completa, descargar Star Wars Episodio IX: El ascenso de Skywalker (2019) 4K UHD HDR Web-DL Latino WEBDL gratis en mega.

Star Wars Episodio IX: El ascenso de Skywalker (2019) 4K UHD HDR Web-DL Latino pelicula full hd, Star Wars Episodio IX: El ascenso de Skywalker (2019) 4K UHD HDR Web-DL Latino mega latino, Star Wars Episodio IX: El ascenso de Skywalker (2019) 4K UHD HDR Web-DL Latino 4k latino, Star Wars Episodio IX: El ascenso de Skywalker (2019) 4K UHD HDR Web-DL Latino pelicula completa, Star Wars Episodio IX: El ascenso de Skywalker (2019) 4K UHD HDR Web-DL Latino descargar gratis, descargar Star Wars Episodio IX: El ascenso de Skywalker (2019) 4K UHD HDR Web-DL Latino pelicula latino, Star Wars Episodio IX: El ascenso de Skywalker (2019) 4K UHD HDR Web-DL Latino 1 link mega, Star Wars Episodio IX: El ascenso de Skywalker (2019) 4K UHD HDR Web-DL Latino 1 link google drive, Star Wars Episodio IX: El ascenso de Skywalker (2019) 4K UHD HDR Web-DL Latino hd 1080p latino.
Comentarios 2
  • Star Toys - 18 marzo, 2020

    que significa que este en hdr?

    • CinefiloCool - 19 marzo, 2020

      Si no sabes lo que significa HDR esta version no es para ti, puedes descargar sin problemas la version 1080p.
      [HDR: High Dynamic Range.- permite un mejor rango dinamico de luminancias, esto provoca; segun expertos, colores mas vivos o realistas]