Star Wars Episodio IX: El ascenso de Skywalker (2019) PLACEBO Full HD 1080p Latino

5.146 vistas
1 estrella2 estrellas3 estrellas4 estrellas5 estrellas (9 votos, promedio: 4,11 de 5)
Cargando…

Información de Star Wars Episodio IX: El ascenso de Skywalker (2019) PLACEBO Full HD 1080p Latino

Datos de la película

  • Calidad: Full 1080p
  • Audio: Español Latino AC3 5.1 BLURAY - Ingles DTS 5.1 BLURAY
  • Subtitulos: Español Latino PGS - Ingles PGS
  • Resolución: 1920X1080p
  • Formato: MKV
  • Codec: H.264
  • Encoder: Melkor
  • Mediainfo: Clic para Mostrar Datos Ver
  • Star Wars - Episodio IX (2019) Full HD 1080p Latino.mkv
    Format                      : Matroska
    Format version              : Version 4
    File size                   : 12.5 GiB
    Duration                    : 2 h 21 min
    Overall bit rate            : 12.6 Mb/s
    Movie name                  : Star Wars - Episodio IX (2019) CinemaniaHDD.Net
    Encoded date                : UTC 2020-03-20 07:13:39
    Writing application         : mkvmerge v42.0.0 ('Overtime') 64-bit
    Writing library             : libebml v1.3.10 + libmatroska v1.5.2
    Attachments                 : CINEMANIAHD.png

    Video
    ID                          : 1
    Format                      : AVC
    Format/Info                 : Advanced Video Codec
    Format profile              : High@L4.1
    Format settings             : CABAC / 4 Ref Frames
    Format settings, CABAC      : Yes
    Format settings, ReFrames   : 4 frames
    Codec ID                    : V_MPEG4/ISO/AVC
    Duration                    : 2 h 21 min
    Bit rate                    : 10.4 Mb/s
    Width                       : 1 920 pixels
    Height                      : 1 080 pixels
    Display aspect ratio        : 16:9
    Frame rate mode             : Constant
    Frame rate                  : 23.976 (24000/1001) FPS
    Color space                 : YUV
    Chroma subsampling          : 4:2:0
    Bit depth                   : 8 bits
    Scan type                   : Progressive
    Bits/(Pixel*Frame)          : 0.209
    Stream size                 : 10.3 GiB (83%)
    Title                       : Full HD1080p [CinemaniaHDD]
    Writing library             : x264 core 157 r2935 545de2f
    Encoding settings           : cabac=1 / ref=4 / deblock=1:0:0 / analyse=0x3:0x133 / me=tesa / subme=11 / psy=1 / psy_rd=1.00:0.00 / mixed_ref=1 / me_range=24 / chroma_me=1 / trellis=2 / 8x8dct=1 / cqm=0 / deadzone=21,11 / fast_pskip=0 / chroma_qp_offset=-2 / threads=34 / lookahead_threads=8 / sliced_threads=0 / nr=0 / decimate=1 / interlaced=0 / bluray_compat=0 / constrained_intra=0 / bframes=16 / b_pyramid=2 / b_adapt=2 / b_bias=0 / direct=3 / weightb=1 / open_gop=0 / weightp=2 / keyint=240 / keyint_min=24 / scenecut=40 / intra_refresh=0 / rc_lookahead=60 / rc=crf / mbtree=1 / crf=19.0 / qcomp=0.60 / qpmin=0 / qpmax=69 / qpstep=4 / vbv_maxrate=62500 / vbv_bufsize=78125 / crf_max=0.0 / nal_hrd=none / filler=0 / ip_ratio=1.40 / aq=1:1.00
    Default                     : Yes
    Forced                      : Yes
    Color range                 : Limited
    Color primaries             : BT.709
    Transfer characteristics    : BT.709
    Matrix coefficients         : BT.709

    Audio #1
    ID                          : 2
    Format                      : AC-3
    Format/Info                 : Audio Coding 3
    Commercial name             : Dolby Digital
    Codec ID                    : A_AC3
    Duration                    : 2 h 21 min
    Bit rate mode               : Constant
    Bit rate                    : 640 kb/s
    Channel(s)                  : 6 channels
    Channel layout              : L R C LFE Ls Rs
    Sampling rate               : 48.0 kHz
    Frame rate                  : 31.250 FPS (1536 SPF)
    Bit depth                   : 16 bits
    Compression mode            : Lossy
    Stream size                 : 649 MiB (5%)
    Title                       : Español Latino [CinemaniaHDD]
    Language                    : Spanish
    Service kind                : Complete Main
    Default                     : Yes
    Forced                      : No

    Audio #2
    ID                          : 3
    Format                      : DTS
    Format/Info                 : Digital Theater Systems
    Codec ID                    : A_DTS
    Duration                    : 2 h 21 min
    Bit rate mode               : Constant
    Bit rate                    : 1 509 kb/s
    Channel(s)                  : 6 channels
    Channel layout              : C L R Ls Rs LFE
    Sampling rate               : 48.0 kHz
    Frame rate                  : 93.750 FPS (512 SPF)
    Bit depth                   : 24 bits
    Compression mode            : Lossy
    Stream size                 : 1.50 GiB (12%)
    Title                       : Ingles [CinemaniaHDD]
    Language                    : English
    Default                     : No
    Forced                      : No

    Text #1
    ID                          : 4
    Format                      : PGS
    Muxing mode                 : zlib
    Codec ID                    : S_HDMV/PGS
    Codec ID/Info               : Picture based subtitle format used on BDs/HD-DVDs
    Duration                    : 2 h 11 min
    Bit rate                    : 28.2 kb/s
    Count of elements           : 2900
    Stream size                 : 26.6 MiB (0%)
    Title                       : Español-PGS [CinemaniaHDD]
    Language                    : Spanish
    Default                     : No
    Forced                      : No

    Text #2
    ID                          : 5
    Format                      : PGS
    Muxing mode                 : zlib
    Codec ID                    : S_HDMV/PGS
    Codec ID/Info               : Picture based subtitle format used on BDs/HD-DVDs
    Duration                    : 2 h 12 min
    Bit rate                    : 27.4 kb/s
    Count of elements           : 2901
    Stream size                 : 25.9 MiB (0%)
    Title                       : Ingles-PGS [CinemaniaHDD]
    Language                    : English
    Default                     : No
    Forced                      : No

    Text #3
    ID                          : 6
    Format                      : UTF-8
    Codec ID                    : S_TEXT/UTF8
    Codec ID/Info               : UTF-8 Plain Text
    Duration                    : 1 s 585 ms
    Bit rate                    : 116 b/s
    Count of elements           : 1
    Stream size                 : 23.0 Bytes (0%)
    Title                       : Forzados-SRT [CinemaniaHDD]
    Language                    : Spanish
    Default                     : Yes
    Forced                      : No

    Text #4
    ID                          : 7
    Format                      : UTF-8
    Codec ID                    : S_TEXT/UTF8
    Codec ID/Info               : UTF-8 Plain Text
    Duration                    : 2 h 11 min
    Bit rate                    : 42 b/s
    Count of elements           : 1450
    Stream size                 : 40.9 KiB (0%)
    Title                       : Español-SRT [CinemaniaHDD]
    Language                    : Spanish
    Default                     : No
    Forced                      : No

    Menu
    00:00:00.000                : en:Chapter 01
    00:00:09.175                : en:Chapter 02
    00:01:40.934                : en:Chapter 03
    00:03:47.810                : en:Chapter 04
    00:06:42.902                : en:Chapter 05
    00:08:26.672                : en:Chapter 06
    00:10:04.895                : en:Chapter 07
    00:12:48.142                : en:Chapter 08
    00:13:53.999                : en:Chapter 09
    00:15:17.416                : en:Chapter 10
    00:17:13.198                : en:Chapter 11
    00:19:25.038                : en:Chapter 12
    00:21:28.578                : en:Chapter 13
    00:25:27.692                : en:Chapter 14
    00:27:14.883                : en:Chapter 15
    00:30:41.548                : en:Chapter 16
    00:35:49.063                : en:Chapter 17
    00:41:37.745                : en:Chapter 18
    00:43:15.259                : en:Chapter 19
    00:45:28.350                : en:Chapter 20
    00:48:24.568                : en:Chapter 21
    00:54:37.565                : en:Chapter 22
    00:58:49.192                : en:Chapter 23
    01:02:54.770                : en:Chapter 24
    01:06:23.104                : en:Chapter 25
    01:09:54.607                : en:Chapter 26
    01:13:07.382                : en:Chapter 27
    01:18:23.615                : en:Chapter 28
    01:23:41.224                : en:Chapter 29
    01:27:02.884                : en:Chapter 30
    01:30:23.126                : en:Chapter 31
    01:35:00.820                : en:Chapter 32
    01:38:47.880                : en:Chapter 33
    01:40:35.863                : en:Chapter 34
    01:43:03.135                : en:Chapter 35
    01:45:27.863                : en:Chapter 36
    01:48:48.188                : en:Chapter 37
    01:53:27.634                : en:Chapter 38
    01:55:30.757                : en:Chapter 39
    01:59:02.969                : en:Chapter 40
    02:01:37.748                : en:Chapter 41
    02:05:20.429                : en:Chapter 42
    02:09:42.691                : en:Chapter 43
    02:12:25.896                : en:Chapter 44

  • Peso: 12.5 GiB

Sinopsis

Descargar Star Wars Episodio IX: El ascenso de Skywalker (2019) PLACEBO Full HD 1080p Latino. Un año después de los eventos de «Los últimos Jedi», los restos de la Resistencia se enfrentarán una vez más a la Primera Orden, involucrando conflictos del pasado y del presente. Mientras tanto, el antiguo conflicto entre los Jedi y los Sith llegará a su clímax, lo que llevará a la saga de los Skywalker a un final definitivo. Final de la trilogía iniciada con «El despertar de la Fuerza».

Ficha técnica

Video trailer de la película

Enlaces de descarga

Rip de Bluray

Descargar Star Wars Episodio IX: El ascenso de Skywalker (2019) PLACEBO Full HD 1080p Latino




Aportes de DPeliculasHDmega la pass es:dpeliculashdmega.org Aportes de CinemaniaHD la pass es:cinemaniahdd.com

Películas relacionadas

Comentarios 0