Star Wars: Episodio IV (1977) Full HD 1080p Latino

3.216 vistas
1 estrella2 estrellas3 estrellas4 estrellas5 estrellas (5 votos, promedio: 3,60 de 5)
Cargando...

Información de Star Wars: Episodio IV (1977) Full HD 1080p Latino

Datos de la película

  • Calidad: Full 1080p
  • Audio: Español Latino AC3 5.1 BLURAY - Ingles DTS 5.1 BLURAY
  • Subtitulos: Español Latino PGS - Ingles PGS
  • Resolución: 1920x1080p
  • Formato: MKV
  • Codec: H.264
  • Encoder: CinefiloCool
  • Mediainfo: Clic para Mostrar Datos Ver
  • Star Wars Episodio IV (1977) Full HD 1080p Latino-CMHDD.mkv
    Format                      : Matroska
    Format version              : Version 4
    File size                   : 9.22 GiB
    Duration                    : 2 h 4 min
    Overall bit rate mode       : Variable
    Overall bit rate            : 10.6 Mb/s
    Movie name                  : Una Nueva Esperanza (1977) CinemaniaHDD.Net
    Encoded date                : UTC 2020-04-21 13:51:32
    Writing application         : mkvmerge v42.0.0 ('Overtime') 64-bit
    Writing library             : libebml v1.3.10 + libmatroska v1.5.2
    Attachments                 : CINEMANIAHD.png

    Video
    ID                          : 1
    Format                      : AVC
    Format/Info                 : Advanced Video Codec
    Format profile              : High@L4.1
    Format settings             : CABAC / 4 Ref Frames
    Format settings, CABAC      : Yes
    Format settings, ReFrames   : 4 frames
    Codec ID                    : V_MPEG4/ISO/AVC
    Duration                    : 2 h 4 min
    Bit rate                    : 6 018 kb/s
    Width                       : 1 920 pixels
    Height                      : 1 080 pixels
    Display aspect ratio        : 16:9
    Frame rate mode             : Constant
    Frame rate                  : 23.976 (24000/1001) FPS
    Color space                 : YUV
    Chroma subsampling          : 4:2:0
    Bit depth                   : 8 bits
    Scan type                   : Progressive
    Bits/(Pixel*Frame)          : 0.121
    Stream size                 : 5.24 GiB (57%)
    Title                       : Full HD1080p [CinemaniaHDD]
    Writing library             : x264 core 157 r2935 545de2f
    Encoding settings           : cabac=1 / ref=4 / deblock=1:0:0 / analyse=0x3:0x133 / me=tesa / subme=11 / psy=1 / psy_rd=1.00:0.00 / mixed_ref=1 / me_range=24 / chroma_me=1 / trellis=2 / 8x8dct=1 / cqm=0 / deadzone=21,11 / fast_pskip=0 / chroma_qp_offset=-2 / threads=34 / lookahead_threads=8 / sliced_threads=0 / nr=0 / decimate=1 / interlaced=0 / bluray_compat=0 / constrained_intra=0 / bframes=16 / b_pyramid=2 / b_adapt=2 / b_bias=0 / direct=3 / weightb=1 / open_gop=0 / weightp=2 / keyint=240 / keyint_min=24 / scenecut=40 / intra_refresh=0 / rc_lookahead=60 / rc=crf / mbtree=1 / crf=20.0 / qcomp=0.60 / qpmin=0 / qpmax=69 / qpstep=4 / vbv_maxrate=62500 / vbv_bufsize=78125 / crf_max=0.0 / nal_hrd=none / filler=0 / ip_ratio=1.40 / aq=1:1.00
    Default                     : Yes
    Forced                      : Yes
    Color range                 : Limited
    Color primaries             : BT.709
    Transfer characteristics    : BT.709
    Matrix coefficients         : BT.709

    Audio #1
    ID                          : 2
    Format                      : AC-3
    Format/Info                 : Audio Coding 3
    Commercial name             : Dolby Digital
    Codec ID                    : A_AC3
    Duration                    : 2 h 4 min
    Bit rate mode               : Constant
    Bit rate                    : 448 kb/s
    Channel(s)                  : 6 channels
    Channel layout              : L R C LFE Ls Rs
    Sampling rate               : 48.0 kHz
    Frame rate                  : 31.250 FPS (1536 SPF)
    Bit depth                   : 16 bits
    Compression mode            : Lossy
    Stream size                 : 400 MiB (4%)
    Title                       : Español Latino [CinemaniaHDD]
    Language                    : Spanish
    Service kind                : Complete Main
    Default                     : Yes
    Forced                      : No

    Audio #2
    ID                          : 3
    Format                      : DTS ES XXCH XLL
    Format/Info                 : Digital Theater Systems
    Commercial name             : DTS-HD Master Audio
    Codec ID                    : A_DTS
    Duration                    : 2 h 4 min
    Bit rate mode               : Variable
    Bit rate                    : 4 069 kb/s
    Channel(s)                  : 7 channels
    Channel layout              : C L R Ls Rs LFE Cb
    Sampling rate               : 48.0 kHz
    Frame rate                  : 93.750 FPS (512 SPF)
    Bit depth                   : 24 bits
    Compression mode            : Lossless
    Stream size                 : 3.55 GiB (38%)
    Title                       : Ingles [CinemaniaHDD]
    Language                    : English
    Default                     : No
    Forced                      : No

    Text #1
    ID                          : 4
    Format                      : PGS
    Muxing mode                 : zlib
    Codec ID                    : S_HDMV/PGS
    Codec ID/Info               : Picture based subtitle format used on BDs/HD-DVDs
    Duration                    : 1 h 14 min
    Bit rate                    : 1 664 b/s
    Count of elements           : 62
    Stream size                 : 911 KiB (0%)
    Title                       : Forzados-PGS [CinemaniaHDD]
    Language                    : Spanish
    Default                     : Yes
    Forced                      : No

    Text #2
    ID                          : 5
    Format                      : PGS
    Muxing mode                 : zlib
    Codec ID                    : S_HDMV/PGS
    Codec ID/Info               : Picture based subtitle format used on BDs/HD-DVDs
    Duration                    : 2 h 4 min
    Bit rate                    : 48.2 kb/s
    Count of elements           : 2610
    Stream size                 : 43.0 MiB (0%)
    Title                       : Español-PGS [CinemaniaHDD]
    Language                    : Spanish
    Default                     : No
    Forced                      : No

    Text #3
    ID                          : 6
    Format                      : PGS
    Muxing mode                 : zlib
    Codec ID                    : S_HDMV/PGS
    Codec ID/Info               : Picture based subtitle format used on BDs/HD-DVDs
    Duration                    : 2 h 4 min
    Bit rate                    : 57.3 kb/s
    Count of elements           : 3452
    Stream size                 : 51.1 MiB (1%)
    Title                       : Ingles-PGS [CinemaniaHDD]
    Language                    : English
    Default                     : No
    Forced                      : No

    Text #4
    ID                          : 7
    Format                      : UTF-8
    Codec ID                    : S_TEXT/UTF8
    Codec ID/Info               : UTF-8 Plain Text
    Duration                    : 4 min 8 s
    Bit rate                    : 34 b/s
    Count of elements           : 30
    Stream size                 : 1.05 KiB (0%)
    Title                       : Forzados-SRT [CinemaniaHDD]
    Language                    : Spanish
    Default                     : No
    Forced                      : No

    Text #5
    ID                          : 8
    Format                      : UTF-8
    Codec ID                    : S_TEXT/UTF8
    Codec ID/Info               : UTF-8 Plain Text
    Duration                    : 1 h 55 min
    Bit rate                    : 54 b/s
    Count of elements           : 1304
    Stream size                 : 46.4 KiB (0%)
    Title                       : Español-SRT [CinemaniaHDD]
    Language                    : Spanish
    Default                     : No
    Forced                      : No

    Menu
    00:00:00.000                : en:Opening Logos
    00:00:21.021                : en:A New Hope
    00:01:53.404                : en:Imperial Boarding Party
    00:04:52.792                : en:Artoo's Mission
    00:07:28.281                : en:Vader Confronts the Princess
    00:08:54.867                : en:Lost in the Desert
    00:11:21.389                : en:Land of the Jawas
    00:15:40.230                : en:Droids for Sale
    00:19:40.178                : en:In the Garage
    00:23:33.203                : en:Lars Family Dinner
    00:25:32.614                : en:Binary Sunset
    00:27:45.497                : en:Attack of the Sand People
    00:29:12.709                : en:Meeting Old Ben
    00:32:34.077                : en:"Your Father's Lightsaber"
    00:34:53.007                : en:Leia's Message
    00:36:54.211                : en:The Death Star
    00:39:05.634                : en:Torched Homestead
    00:41:42.291                : en:Luke's Decision
    00:42:31.548                : en:Mos Eisley Spacesport
    00:44:51.730                : en:The Cantina
    00:47:52.619                : en:Han Solo
    00:49:57.994                : en:Cornered by Greedo
    00:51:13.695                : en:Death Star Destination
    00:52:40.740                : en:Jabba the Hutt
    00:54:12.332                : en:The Millennium Falcon
    00:56:59.916                : en:Alderaan's Fate
    00:59:14.175                : en:Lightsaber Training
    01:03:10.828                : en:"That's No Moon..."
    01:06:16.472                : en:Secret Compartment
    01:08:21.972                : en:Planning the Escape
    01:12:32.389                : en:Wookiee Prisoner
    01:14:12.656                : en:Rescuing the Princess
    01:17:13.712                : en:Into the Garbage Chute
    01:19:09.327                : en:The Trash Compactor
    01:21:29.384                : en:The Walls Close In
    01:25:00.220                : en:Deactivating the Tractor Beam
    01:27:02.091                : en:Back to the Ship
    01:29:56.182                : en:Obi-Wan vs. Vader
    01:33:48.456                : en:Tie Fighter Attack
    01:36:39.877                : en:"They Let Us Go"
    01:38:06.755                : en:Arrival on Yavin 4
    01:39:37.513                : en:Rebel Briefing
    01:41:24.995                : en:Hans Departure
    01:42:37.401                : en:Luke and Biggs
    01:45:02.629                : en:Assault on the Death Star
    01:49:42.784                : en:Trench Runs
    01:55:18.911                : en:"Use the Force, Luke"
    01:57:47.393                : en:A Hero's Welcome
    01:58:28.518                : en:Medal Ceremony
    02:00:14.498                : en:End Credits

  • Peso: 9.22 GiB

Sinopsis

Descargar Star Wars: Episodio IV (1977) Full HD 1080p Latino. La princesa Leia, líder del movimiento rebelde que desea reinstaurar la República en la galaxia en los tiempos ominosos del Imperio, es capturada por las malévolas Fuerzas Imperiales, capitaneadas por el implacable Darth Vader, el sirviente más fiel del emperador. El intrépido Luke Skywalker, ayudado por Han Solo, capitán de la nave espacial «El Halcón Milenario», y los androides, R2D2 y C3PO, serán los encargados de luchar contra el enemigo y rescatar a la princesa para volver a instaurar la justicia en el seno de la Galaxia.

Nota: Resubida y Actualizada, Intro Con Textos En Español 🙂

Ficha técnica

Video trailer de la película

Enlaces de descarga

Rip de Bluray

Descargar Star Wars: Episodio IV (1977) Full HD 1080p Latino




Aportes de DPeliculasHDmega la pass es:dpeliculashdmega.org Aportes de CinemaniaHD la pass es:cinemaniahdd.com

Películas relacionadas

  • Viernes 13 Parte X: Jason X (2001) 1080p Latino

    Viernes 13 Parte X: Jason X (2001) 1080p Latino

    2001
    Viernes 13 Parte X: Jason X (2001) 1080p Latino

    0.0 1h 31m 2001

    Descargar Viernes 13 Parte X: Jason X (2001) 1080p Latino. En el año 2455, Old Earth es ahora un planeta...

    Director: Walter Gasparovic

    Género: Ciencia ficción

    Actores: Yani Gellman

  • The Debt Collector 2 (2020) Full HD 1080p Latino

    The Debt Collector 2 (2020) Full HD 1080p Latino

    2020
    The Debt Collector 2 (2020) Full HD 1080p Latino

    0.0 1h 37m 2020

    French y Sue trabajan en lo que mejor se les da -romper cráneos y aplastar huesos- mientras persiguen...

    Director: Jesse V. Johnson

    Género: Acción

    Actores: Vladimir Kulich

  • The Debt Collector 2 (2020) HD 1080p Latino

    The Debt Collector 2 (2020) HD 1080p Latino

    2020
    The Debt Collector 2 (2020) HD 1080p Latino

    0.0 1h 37m 2020

    French y Sue trabajan en lo que mejor se les da -romper cráneos y aplastar huesos- mientras persiguen...

    Director: Jesse V. Johnson

    Género: Acción

    Actores: Vladimir Kulich

  • The Debt Collector 2 (2020) REMUX 1080p Latino

    The Debt Collector 2 (2020) REMUX 1080p Latino

    2020
    The Debt Collector 2 (2020) REMUX 1080p Latino

    0.0 1h 37m 2020

    French y Sue trabajan en lo que mejor se les da -romper cráneos y aplastar huesos- mientras persiguen...

    Director: Jesse V. Johnson

    Género: Acción

    Actores: Vladimir Kulich

  • Viernes 13 (2009) Full HD 1080p Latino

    Viernes 13 (2009) Full HD 1080p Latino

    2009
    Viernes 13 (2009) Full HD 1080p Latino

    0.0 1h 37m 2009

    Descargar Viernes 13 (2009) Full HD 1080p Latino. Remake del clásico film de terror, dirigido en 1980...

    Director: Marcus Nispel

    Género: FULL 1080p Plateadas

    Actores: Willa Ford

Comentarios 0