Star Wars: Episodio III (2005) Full HD 1080p Latino

3.520 vistas
1 estrella2 estrellas3 estrellas4 estrellas5 estrellas (7 votos, promedio: 3,29 de 5)
Cargando...

Información de Star Wars: Episodio III (2005) Full HD 1080p Latino

Datos de la película

  • Calidad: Full 1080p
  • Audio: Español Latino AC3 5.1 BLURAY - Ingles DTS 5.1 BLURAY
  • Subtitulos: Español Latino PGS - Ingles PGS
  • Resolución: 1920x1080p
  • Formato: MKV
  • Codec: H.264
  • Encoder: CinefiloCool
  • Mediainfo: Clic para Mostrar Datos Ver
  • Star Wars Episodio III (2005) Full HD 1080p Latino-CMHDD.mkv
    Format                      : Matroska
    Format version              : Version 4
    File size                   : 9.92 GiB
    Duration                    : 2 h 20 min
    Overall bit rate mode       : Variable
    Overall bit rate            : 10.1 Mb/s
    Movie name                  : La Venganza De Los Sith (2005) CinemaniaHDD.Net
    Encoded date                : UTC 2020-04-04 17:56:45
    Writing application         : mkvmerge v42.0.0 ('Overtime') 64-bit
    Writing library             : libebml v1.3.10 + libmatroska v1.5.2
    Attachments                 : CINEMANIAHD.png

    Video
    ID                          : 1
    Format                      : AVC
    Format/Info                 : Advanced Video Codec
    Format profile              : High@L4.1
    Format settings             : CABAC / 4 Ref Frames
    Format settings, CABAC      : Yes
    Format settings, ReFrames   : 4 frames
    Codec ID                    : V_MPEG4/ISO/AVC
    Duration                    : 2 h 20 min
    Bit rate                    : 5 247 kb/s
    Width                       : 1 920 pixels
    Height                      : 1 080 pixels
    Display aspect ratio        : 16:9
    Frame rate mode             : Constant
    Frame rate                  : 23.976 (24000/1001) FPS
    Color space                 : YUV
    Chroma subsampling          : 4:2:0
    Bit depth                   : 8 bits
    Scan type                   : Progressive
    Bits/(Pixel*Frame)          : 0.106
    Stream size                 : 5.13 GiB (52%)
    Title                       : Full HD1080p [CinemaniaHDD]
    Writing library             : x264 core 157 r2935 545de2f
    Encoding settings           : cabac=1 / ref=4 / deblock=1:0:0 / analyse=0x3:0x133 / me=tesa / subme=11 / psy=1 / psy_rd=1.00:0.00 / mixed_ref=1 / me_range=24 / chroma_me=1 / trellis=2 / 8x8dct=1 / cqm=0 / deadzone=21,11 / fast_pskip=0 / chroma_qp_offset=-2 / threads=34 / lookahead_threads=8 / sliced_threads=0 / nr=0 / decimate=1 / interlaced=0 / bluray_compat=0 / constrained_intra=0 / bframes=16 / b_pyramid=2 / b_adapt=2 / b_bias=0 / direct=3 / weightb=1 / open_gop=0 / weightp=2 / keyint=240 / keyint_min=24 / scenecut=40 / intra_refresh=0 / rc_lookahead=60 / rc=crf / mbtree=1 / crf=20.0 / qcomp=0.60 / qpmin=0 / qpmax=69 / qpstep=4 / vbv_maxrate=62500 / vbv_bufsize=78125 / crf_max=0.0 / nal_hrd=none / filler=0 / ip_ratio=1.40 / aq=1:1.00
    Default                     : Yes
    Forced                      : Yes
    Color range                 : Limited
    Color primaries             : BT.709
    Transfer characteristics    : BT.709
    Matrix coefficients         : BT.709

    Audio #1
    ID                          : 2
    Format                      : AC-3
    Format/Info                 : Audio Coding 3
    Commercial name             : Dolby Digital
    Codec ID                    : A_AC3
    Duration                    : 2 h 20 min
    Bit rate mode               : Constant
    Bit rate                    : 448 kb/s
    Channel(s)                  : 6 channels
    Channel layout              : L R C LFE Ls Rs
    Sampling rate               : 48.0 kHz
    Frame rate                  : 31.250 FPS (1536 SPF)
    Bit depth                   : 16 bits
    Compression mode            : Lossy
    Stream size                 : 449 MiB (4%)
    Title                       : Español Latino [CinemaniaHDD]
    Language                    : Spanish
    Service kind                : Complete Main
    Default                     : Yes
    Forced                      : Yes

    Audio #2
    ID                          : 3
    Format                      : DTS ES XXCH XLL
    Format/Info                 : Digital Theater Systems
    Commercial name             : DTS-HD Master Audio
    Codec ID                    : A_DTS
    Duration                    : 2 h 20 min
    Bit rate mode               : Variable
    Bit rate                    : 4 403 kb/s
    Channel(s)                  : 7 channels
    Channel layout              : C L R Ls Rs LFE Cb
    Sampling rate               : 48.0 kHz
    Frame rate                  : 93.750 FPS (512 SPF)
    Bit depth                   : 24 bits
    Compression mode            : Lossless
    Stream size                 : 4.31 GiB (43%)
    Title                       : Ingles [CinemaniaHDD]
    Language                    : English
    Default                     : No
    Forced                      : No

    Text #1
    ID                          : 4
    Format                      : PGS
    Muxing mode                 : zlib
    Codec ID                    : S_HDMV/PGS
    Codec ID/Info               : Picture based subtitle format used on BDs/HD-DVDs
    Duration                    : 2 h 20 min
    Bit rate                    : 34.3 kb/s
    Count of elements           : 2278
    Stream size                 : 34.3 MiB (0%)
    Title                       : Español-PGS [CinemaniaHDD]
    Language                    : Spanish
    Default                     : No
    Forced                      : No

    Text #2
    ID                          : 5
    Format                      : PGS
    Muxing mode                 : zlib
    Codec ID                    : S_HDMV/PGS
    Codec ID/Info               : Picture based subtitle format used on BDs/HD-DVDs
    Duration                    : 2 h 20 min
    Bit rate                    : 41.6 kb/s
    Count of elements           : 2942
    Stream size                 : 41.6 MiB (0%)
    Title                       : Ingles-PGS [CinemaniaHDD]
    Language                    : English
    Default                     : No
    Forced                      : No

    Text #3
    ID                          : 6
    Format                      : UTF-8
    Codec ID                    : S_TEXT/UTF8
    Codec ID/Info               : UTF-8 Plain Text
    Duration                    : 2 h 7 min
    Bit rate                    : 41 b/s
    Count of elements           : 1137
    Stream size                 : 38.8 KiB (0%)
    Title                       : Español-SRT [CinemaniaHDD]
    Language                    : Spanish
    Default                     : No
    Forced                      : No

    Menu
    00:00:00.000                : en:Opening Logos
    00:00:23.523                : en:Revenge of the Sith
    00:01:50.068                : en:Battle Over Coruscant
    00:08:28.133                : en:General Grievous
    00:11:23.349                : en:Rescuing the Chancellor
    00:18:33.738                : en:Confronting Grievous
    00:23:40.461                : en:Happy Reunions
    00:27:37.698                : en:Grievous on Utapau
    00:29:12.960                : en:Bad Dreams
    00:33:18.914                : en:Counsel with Yoda
    00:35:45.435                : en:The Chancellor's Request
    00:36:47.997                : en:On the Jedi Council
    00:38:21.466                : en:Secret Assignment
    00:40:17.457                : en:Not the Chosen One?
    00:41:18.601                : en:Seeds of Distrust
    00:42:41.058                : en:Tragedy of Darth Plagueis
    00:48:01.587                : en:Kashyyyk
    00:50:20.517                : en:Brothers' Farewell
    00:52:24.933                : en:A Hero Lost
    00:53:58.026                : en:Arrival on Utapau
    00:56:26.466                : en:Obi-Wan vs. Grievous
    01:00:56.278                : en:Jedi War Council
    01:01:56.546                : en:Sidious Revealed
    01:05:26.047                : en:Utapau Chase
    01:07:40.598                : en:Mace Learns the Truth
    01:09:06.976                : en:Anakin's Fatal Decision
    01:10:52.999                : en:Mace vs. Sidious
    01:15:19.223                : en:Rise Lord Vader
    01:19:15.250                : en:March on the Jedi Temple
    01:20:37.458                : en:Order Sixty-Six
    01:24:20.597                : en:Time to Leave
    01:27:56.521                : en:"Wait for Me"
    01:29:57.392                : en:The Heroes Regroup
    01:33:40.406                : en:Birth of the Empire
    01:36:39.460                : en:The Terrible Truth
    01:38:35.535                : en:Obi-Wan Confronts PadmГ©
    01:41:24.370                : en:PadmГ©'s Departure
    01:42:57.004                : en:"You're Breaking My Heart"
    01:48:18.784                : en:Yoda Visits the Emperor
    01:50:59.444                : en:Battle of the Heroes
    01:52:44.007                : en:Yoda vs. Sidious
    01:54:22.856                : en:Narrow Escapes
    01:56:54.925                : en:Immolation
    02:02:20.875                : en:The Emperor Arrives
    02:03:32.864                : en:Secret Delivery
    02:05:19.637                : en:Birth and Rebirth
    02:07:37.108                : en:Darth Vader Awakes
    02:08:57.063                : en:The Future of the Twins
    02:12:04.959                : en:A New Hope
    02:13:47.353                : en:End Credits

  • Peso: 9.92 GiB

Sinopsis

Descargar Star Wars: Episodio III (2005) Full HD 1080p Latino. Último capítulo de la saga de Star Wars, en el que Anakin Skywalker definitivamente se pasa al lado oscuro. En el Episodio III aparecerá el General Grievous, un ser implacable mitad-alien mitad-robot, el líder del ejército separatista Droid. Los Sith son los amos del lado oscuro de la Fuerza y los enemigos de los Jedi. Ellos fueron prácticamente exterminados por los Jedi hace mil años, pero la orden del mal sobrevivió en la clandestinidad.

Nota: Resubida y Actualizada, Intro Con Textos En Español 🙂

Ficha técnica

Video trailer de la película

Enlaces de descarga

Rip de Bluray

Descargar Star Wars: Episodio III (2005) Full HD 1080p Latino




Aportes de DPeliculasHDmega la pass es:dpeliculashdmega.org Aportes de CinemaniaHD la pass es:cinemaniahdd.com

Películas relacionadas

  • Viernes 13 Parte X: Jason X (2001) 1080p Latino

    Viernes 13 Parte X: Jason X (2001) 1080p Latino

    2001
    Viernes 13 Parte X: Jason X (2001) 1080p Latino

    0.0 1h 31m 2001

    Descargar Viernes 13 Parte X: Jason X (2001) 1080p Latino. En el año 2455, Old Earth es ahora un planeta...

    Director: Walter Gasparovic

    Género: Ciencia ficción

    Actores: Yani Gellman

  • The Debt Collector 2 (2020) Full HD 1080p Latino

    The Debt Collector 2 (2020) Full HD 1080p Latino

    2020
    The Debt Collector 2 (2020) Full HD 1080p Latino

    0.0 1h 37m 2020

    French y Sue trabajan en lo que mejor se les da -romper cráneos y aplastar huesos- mientras persiguen...

    Director: Jesse V. Johnson

    Género: Acción

    Actores: Vladimir Kulich

  • The Debt Collector 2 (2020) HD 1080p Latino

    The Debt Collector 2 (2020) HD 1080p Latino

    2020
    The Debt Collector 2 (2020) HD 1080p Latino

    0.0 1h 37m 2020

    French y Sue trabajan en lo que mejor se les da -romper cráneos y aplastar huesos- mientras persiguen...

    Director: Jesse V. Johnson

    Género: Acción

    Actores: Vladimir Kulich

  • The Debt Collector 2 (2020) REMUX 1080p Latino

    The Debt Collector 2 (2020) REMUX 1080p Latino

    2020
    The Debt Collector 2 (2020) REMUX 1080p Latino

    0.0 1h 37m 2020

    French y Sue trabajan en lo que mejor se les da -romper cráneos y aplastar huesos- mientras persiguen...

    Director: Jesse V. Johnson

    Género: Acción

    Actores: Vladimir Kulich

  • Viernes 13 (2009) Full HD 1080p Latino

    Viernes 13 (2009) Full HD 1080p Latino

    2009
    Viernes 13 (2009) Full HD 1080p Latino

    0.0 1h 37m 2009

    Descargar Viernes 13 (2009) Full HD 1080p Latino. Remake del clásico film de terror, dirigido en 1980...

    Director: Marcus Nispel

    Género: FULL 1080p Plateadas

    Actores: Willa Ford

Comentarios 0