×

¿Problemas para descargar con Mozilla, EDGE? Deshabilita la opción "Abrir vinculos en una pestaña nueva" tal como lo muestra ésta imagen.

Star Wars: Episodio II (2002) 1080p Latino

661 vistas

Información de Star Wars: Episodio II (2002) 1080p Latino

Datos de la película

  • Calidad: 1080p
  • Audio: Español Latino AC3 5.1 BLURAY - Ingles AC3 5.1 BLURAY
  • Subtitulos: Español Latino SRT - Ingles SRT
  • Resolución: 1920x816p
  • Formato: MKV
  • Codec: H.264
  • Encoder: CinefiloCool
  • Mediainfo: Clic para Mostrar Datos Ver
  • Star Wars Episodio II (2002) 1080p Latino-CMHDD.mkv
    Format                      : Matroska
    Format version              : Version 4
    File size                   : 4.38 GiB
    Duration                    : 2 h 22 min
    Overall bit rate            : 4 398 kb/s
    Movie name                  : El Ataque De Los Clones (2002) CinemaniaHDD.Net
    Encoded date                : UTC 2020-04-03 04:50:05
    Writing application         : mkvmerge v42.0.0 ('Overtime') 64-bit
    Writing library             : libebml v1.3.10 + libmatroska v1.5.2
    Attachments                 : CINEMANIAHD.png

    Video
    ID                          : 1
    Format                      : AVC
    Format/Info                 : Advanced Video Codec
    Format profile              : High@L4.1
    Format settings             : CABAC / 5 Ref Frames
    Format settings, CABAC      : Yes
    Format settings, ReFrames   : 5 frames
    Codec ID                    : V_MPEG4/ISO/AVC
    Duration                    : 2 h 22 min
    Bit rate                    : 3 500 kb/s
    Width                       : 1 920 pixels
    Height                      : 816 pixels
    Display aspect ratio        : 2.35:1
    Frame rate mode             : Constant
    Frame rate                  : 23.976 (24000/1001) FPS
    Color space                 : YUV
    Chroma subsampling          : 4:2:0
    Bit depth                   : 8 bits
    Scan type                   : Progressive
    Bits/(Pixel*Frame)          : 0.093
    Stream size                 : 3.48 GiB (80%)
    Title                       : HD1080p [CinemaniaHDD]
    Writing library             : x264 core 157 r2935 545de2f
    Encoding settings           : cabac=1 / ref=5 / deblock=1:-1:-1 / analyse=0x3:0x133 / me=umh / subme=9 / psy=1 / psy_rd=1.00:0.15 / mixed_ref=1 / me_range=16 / chroma_me=1 / trellis=2 / 8x8dct=1 / cqm=0 / deadzone=21,11 / fast_pskip=1 / chroma_qp_offset=-3 / threads=25 / lookahead_threads=2 / sliced_threads=0 / nr=0 / decimate=1 / interlaced=0 / bluray_compat=0 / constrained_intra=0 / bframes=3 / b_pyramid=2 / b_adapt=2 / b_bias=0 / direct=3 / weightb=1 / open_gop=0 / weightp=2 / keyint=240 / keyint_min=24 / scenecut=40 / intra_refresh=0 / rc_lookahead=60 / rc=2pass / mbtree=1 / bitrate=3500 / ratetol=1.0 / qcomp=0.60 / qpmin=0 / qpmax=69 / qpstep=4 / cplxblur=20.0 / qblur=0.5 / vbv_maxrate=62500 / vbv_bufsize=78125 / nal_hrd=none / filler=0 / ip_ratio=1.40 / aq=1:1.00
    Default                     : Yes
    Forced                      : No
    Color range                 : Limited
    Color primaries             : BT.709
    Transfer characteristics    : BT.709
    Matrix coefficients         : BT.709

    Audio #1
    ID                          : 2
    Format                      : AC-3
    Format/Info                 : Audio Coding 3
    Commercial name             : Dolby Digital
    Codec ID                    : A_AC3
    Duration                    : 2 h 22 min
    Bit rate mode               : Constant
    Bit rate                    : 448 kb/s
    Channel(s)                  : 6 channels
    Channel layout              : L R C LFE Ls Rs
    Sampling rate               : 48.0 kHz
    Frame rate                  : 31.250 FPS (1536 SPF)
    Bit depth                   : 16 bits
    Compression mode            : Lossy
    Delay relative to video     : -5 ms
    Stream size                 : 457 MiB (10%)
    Title                       : Español Latino [CinemaniaHDD]
    Language                    : Spanish
    Service kind                : Complete Main
    Default                     : Yes
    Forced                      : No

    Audio #2
    ID                          : 3
    Format                      : AC-3
    Format/Info                 : Audio Coding 3
    Commercial name             : Dolby Digital
    Codec ID                    : A_AC3
    Duration                    : 2 h 22 min
    Bit rate mode               : Constant
    Bit rate                    : 448 kb/s
    Channel(s)                  : 6 channels
    Channel layout              : L R C LFE Ls Rs
    Sampling rate               : 48.0 kHz
    Frame rate                  : 31.250 FPS (1536 SPF)
    Bit depth                   : 16 bits
    Compression mode            : Lossy
    Delay relative to video     : -5 ms
    Stream size                 : 457 MiB (10%)
    Title                       : Ingles [CinemaniaHDD]
    Language                    : English
    Service kind                : Complete Main
    Default                     : No
    Forced                      : No

    Text #1
    ID                          : 4
    Format                      : UTF-8
    Codec ID                    : S_TEXT/UTF8
    Codec ID/Info               : UTF-8 Plain Text
    Duration                    : 1 h 55 min
    Bit rate                    : 0 b/s
    Count of elements           : 16
    Stream size                 : 561 Bytes (0%)
    Title                       : Forzados-SRT [CinemaniaHDD]
    Language                    : Spanish
    Default                     : Yes
    Forced                      : No

    Text #2
    ID                          : 5
    Format                      : UTF-8
    Codec ID                    : S_TEXT/UTF8
    Codec ID/Info               : UTF-8 Plain Text
    Duration                    : 2 h 11 min
    Bit rate                    : 41 b/s
    Count of elements           : 1141
    Stream size                 : 40.1 KiB (0%)
    Title                       : Español-SRT [CinemaniaHDD]
    Language                    : Spanish
    Default                     : No
    Forced                      : No

    Text #3
    ID                          : 6
    Format                      : UTF-8
    Codec ID                    : S_TEXT/UTF8
    Codec ID/Info               : UTF-8 Plain Text
    Duration                    : 2 h 11 min
    Bit rate                    : 42 b/s
    Count of elements           : 1222
    Stream size                 : 41.1 KiB (0%)
    Title                       : Ingles-SRT [CinemaniaHDD]
    Language                    : Spanish
    Default                     : No
    Forced                      : No

    Menu
    00:00:00.000                : en:Opening Logos
    00:00:23.440                : en:Attack of the Clones
    00:01:50.527                : en:Return to Coruscant
    00:04:22.095                : en:Chancellors Meeting
    00:07:00.003                : en:Old Friends
    00:10:28.962                : en:Assassins
    00:14:19.901                : en:Speed Chase
    00:21:35.294                : en:Into the Club
    00:24:48.237                : en:New Assignments
    00:29:45.867                : en:Traveling Incognito
    00:31:33.475                : en:Dex's Diner
    00:33:48.526                : en:Jedi Archives
    00:34:50.505                : en:"Encouraged to Love"
    00:36:05.121                : en:Yoda and the Younglins
    00:38:25.929                : en:Return to Naboo
    00:39:25.363                : en:Audience with the Queen
    00:40:56.371                : en:Kamino Arrival
    00:42:12.780                : en:Meeting Lama Su
    00:44:02.014                : en:Stolen Kiss
    00:45:50.414                : en:Inspeting the Clones
    00:47:50.076                : en:Teasing a Senator
    00:50:21.018                : en:Jango's Apartment
    00:53:01.428                : en:Forbidden Love
    00:56:44.818                : en:Obi-Wan's Report
    00:58:56.700                : en:Nightmare
    01:00:46.059                : en:Obi-Wan vs. Jango
    01:03:41.192                : en:Back to Tatoonie
    01:06:24.355                : en:Asteroid Chase
    01:11:18.774                : en:Lar's Homestead
    01:14:01.354                : en:Anakin's Search
    01:15:23.477                : en:Dook's Separatist Plot
    01:17:48.873                : en:Tusken Camp
    01:21:40.354                : en:Out of Range
    01:23:46.897                : en:"You're Not All-Powerful"
    01:28:10.160                : en:Enemies Revealed
    01:30:52.906                : en:Obi-Wan Captive
    01:33:38.488                : en:Emergency Powers
    01:35:27.847                : en:Droid Factory
    01:42:44.867                : en:Love Pledge
    01:45:14.016                : en:The Arena
    01:49:53.629                : en:"This Party Is Over"
    01:56:22.475                : en:Yoda's Cavalry
    01:57:47.602                : en:Clone War
    02:00:29.180                : en:War Room
    02:04:48.981                : en:Duel with Dooku
    02:07:41.946                : en:Master Yoda
    02:11:23.667                : en:"Well Done Lord Tyranus"
    02:12:54.884                : en:"Begun, the Clone Wars Has"
    02:14:49.248                : en:Secret Union
    02:15:54.938                : en:End Credits

  • Peso: 4.38 GiB

Sinopsis

Descargar Star Wars: Episodio II (2002) 1080p Latino. Corren tenebrosos tiempos para la República. Ésta continúa envuelta en luchas y sumida en el caos. Un movimiento separatista, formado por centenares de planetas y poderosas alianzas y y lideradas por el misterioso conde Dooku, abre nuevas amenazas para la galaxia, a la que ni siquiera los Jedi parecen poder poner freno. Estas maniobras, planeadas hace mucho por una poderosa fuerza, conducen al estallido de las guerras clones y al principio del fin de la República. Para allanar el camino, los separatistas intentan asesinar a la senadora Padme Amidala. Para evitar futuros atentados, su seguridad es encomendada a dos caballeros Jedi…

Nota: Intro Con Textos En Español 🙂

Ficha técnica

Video trailer de la película

Enlaces de descarga

Rip de Bluray

Descargar Star Wars: Episodio II (2002) 1080p Latino




Aportes de DPeliculasHDmega la pass es:dpeliculashdmega.org Aportes de CinemaniaHD la pass es:cinemaniahdd.com

Películas relacionadas

  • Corazón de tinta (2008) Full HD 1080p Latino

    Corazón de tinta (2008) Full HD 1080p Latino

    2008
    Corazón de tinta (2008) Full HD 1080p Latino

    1h 46m 2008

    Descargar Corazón de tinta (2008) Full HD 1080p Latino. Mortimer “Mo” Folchart y su hija de 12 años,...

    Director: Sharon Mansfield

    Género: Aventura

    Actores: Terry Cavanagh

  • Corazón de tinta (2008) REMUX 1080p Latino

    Corazón de tinta (2008) REMUX 1080p Latino

    2008
    Corazón de tinta (2008) REMUX 1080p Latino

    1h 46m 2008

    Descargar Corazón de tinta (2008) REMUX 1080p Latino. Mortimer “Mo” Folchart y su hija de 12 años,...

    Director: Sharon Mansfield

    Género: Aventura

    Actores: Tereza Srbová

  • Juego de espías (2001) 1080p Latino

    Juego de espías (2001) 1080p Latino

    2001
    Juego de espías (2001) 1080p Latino

    2h 6m 2001

    Descargar Juego de espías (2001) 1080p Latino. Corre el año 1991, y al veterano agente de la CIA Nathan...

    Director: Tony Scott

    Género: Acción

    Actores: Zsolt Zágoni

  • Juego de espías (2001) Full HD 1080p Latino

    Juego de espías (2001) Full HD 1080p Latino

    2001
    Juego de espías (2001) Full HD 1080p Latino

    2h 6m 2001

    Descargar Juego de espías (2001) Full HD 1080p Latino. Corre el año 1991, y al veterano agente de la...

    Director: Tony Scott

    Género: Acción

    Actores: Zsolt Zágoni

  • Juego de espías (2001) REMUX 1080p Latino

    Juego de espías (2001) REMUX 1080p Latino

    2001
    Juego de espías (2001) REMUX 1080p Latino

    1h 55m 2001

    Descargar Juego de espías (2001) REMUX 1080p Latino. El día de su jubilación, el veterano agente de...

    Director: Tony Scott

    Género: Acción

    Actores: Zsolt Zágoni

descargar Star Wars: Episodio II (2002) 1080p Latino 1080p 1080p gratis, Star Wars: Episodio II (2002) 1080p Latino 1080p mega 1 link, Star Wars: Episodio II (2002) 1080p Latino 1080p pelicula completa, descargar Star Wars: Episodio II (2002) 1080p Latino 1080p gratis en mega.

Star Wars: Episodio II (2002) 1080p Latino pelicula full hd, Star Wars: Episodio II (2002) 1080p Latino mega latino, Star Wars: Episodio II (2002) 1080p Latino 4k latino, Star Wars: Episodio II (2002) 1080p Latino pelicula completa, Star Wars: Episodio II (2002) 1080p Latino descargar gratis, descargar Star Wars: Episodio II (2002) 1080p Latino pelicula latino, Star Wars: Episodio II (2002) 1080p Latino 1 link mega, Star Wars: Episodio II (2002) 1080p Latino 1 link google drive, Star Wars: Episodio II (2002) 1080p Latino hd 1080p latino.
Comentarios 0