×

¿Problemas para descargar con Mozilla, EDGE? Deshabilita la opción "Abrir vinculos en una pestaña nueva" tal como lo muestra ésta imagen.

Star Wars: Episodio II (2002) Full HD 1080p Latino

3.116 vistas

Información de Star Wars: Episodio II (2002) Full HD 1080p Latino

Datos de la película

  • Calidad: Full 1080p
  • Audio: Español Latino AC3 5.1 BLURAY - Ingles DTS 5.1 BLURAY
  • Subtitulos: Español Latino PGS - Ingles PGS
  • Resolución: 1920x1080p
  • Formato: MKV
  • Codec: H.264
  • Encoder: CinefiloCool
  • Mediainfo: Clic para Mostrar Datos Ver
  • Star Wars Episodio II (2002) Full HD 1080p Latino-CMHDD.mkv
    Format                      : Matroska
    Format version              : Version 4
    File size                   : 8.05 GiB
    Duration                    : 2 h 22 min
    Overall bit rate mode       : Variable
    Overall bit rate            : 8 086 kb/s
    Movie name                  : El Ataque De Los Clones (2002) CinemaniaHDD.Net
    Encoded date                : UTC 2020-04-04 10:18:00
    Writing application         : mkvmerge v42.0.0 ('Overtime') 64-bit
    Writing library             : libebml v1.3.10 + libmatroska v1.5.2
    Attachments                 : CINEMANIAHD.png

    Video
    ID                          : 1
    Format                      : AVC
    Format/Info                 : Advanced Video Codec
    Format profile              : High@L4.1
    Format settings             : CABAC / 4 Ref Frames
    Format settings, CABAC      : Yes
    Format settings, ReFrames   : 4 frames
    Codec ID                    : V_MPEG4/ISO/AVC
    Duration                    : 2 h 22 min
    Bit rate                    : 3 069 kb/s
    Width                       : 1 920 pixels
    Height                      : 1 080 pixels
    Display aspect ratio        : 16:9
    Frame rate mode             : Constant
    Frame rate                  : 23.976 (24000/1001) FPS
    Color space                 : YUV
    Chroma subsampling          : 4:2:0
    Bit depth                   : 8 bits
    Scan type                   : Progressive
    Bits/(Pixel*Frame)          : 0.062
    Stream size                 : 3.05 GiB (38%)
    Title                       : Full HD1080p [CinemaniaHDD]
    Writing library             : x264 core 157 r2935 545de2f
    Encoding settings           : cabac=1 / ref=4 / deblock=1:0:0 / analyse=0x3:0x133 / me=tesa / subme=11 / psy=1 / psy_rd=1.00:0.00 / mixed_ref=1 / me_range=24 / chroma_me=1 / trellis=2 / 8x8dct=1 / cqm=0 / deadzone=21,11 / fast_pskip=0 / chroma_qp_offset=-2 / threads=34 / lookahead_threads=8 / sliced_threads=0 / nr=0 / decimate=1 / interlaced=0 / bluray_compat=0 / constrained_intra=0 / bframes=16 / b_pyramid=2 / b_adapt=2 / b_bias=0 / direct=3 / weightb=1 / open_gop=0 / weightp=2 / keyint=240 / keyint_min=24 / scenecut=40 / intra_refresh=0 / rc_lookahead=60 / rc=crf / mbtree=1 / crf=20.0 / qcomp=0.60 / qpmin=0 / qpmax=69 / qpstep=4 / vbv_maxrate=62500 / vbv_bufsize=78125 / crf_max=0.0 / nal_hrd=none / filler=0 / ip_ratio=1.40 / aq=1:1.00
    Default                     : Yes
    Forced                      : Yes
    Color range                 : Limited
    Color primaries             : BT.709
    Transfer characteristics    : BT.709
    Matrix coefficients         : BT.709

    Audio #1
    ID                          : 2
    Format                      : AC-3
    Format/Info                 : Audio Coding 3
    Commercial name             : Dolby Digital
    Codec ID                    : A_AC3
    Duration                    : 2 h 22 min
    Bit rate mode               : Constant
    Bit rate                    : 448 kb/s
    Channel(s)                  : 6 channels
    Channel layout              : L R C LFE Ls Rs
    Sampling rate               : 48.0 kHz
    Frame rate                  : 31.250 FPS (1536 SPF)
    Bit depth                   : 16 bits
    Compression mode            : Lossy
    Stream size                 : 457 MiB (6%)
    Title                       : Español Latino [CinemaniaHDD]
    Language                    : Spanish
    Service kind                : Complete Main
    Default                     : Yes
    Forced                      : Yes

    Audio #2
    ID                          : 3
    Format                      : DTS ES XXCH XLL
    Format/Info                 : Digital Theater Systems
    Commercial name             : DTS-HD Master Audio
    Codec ID                    : A_DTS
    Duration                    : 2 h 22 min
    Bit rate mode               : Variable
    Bit rate                    : 4 533 kb/s
    Channel(s)                  : 7 channels
    Channel layout              : C L R Ls Rs LFE Cb
    Sampling rate               : 48.0 kHz
    Frame rate                  : 93.750 FPS (512 SPF)
    Bit depth                   : 24 bits
    Compression mode            : Lossless
    Stream size                 : 4.51 GiB (56%)
    Title                       : Ingles [CinemaniaHDD]
    Language                    : English
    Default                     : No
    Forced                      : No

    Text #1
    ID                          : 4
    Format                      : PGS
    Muxing mode                 : zlib
    Codec ID                    : S_HDMV/PGS
    Codec ID/Info               : Picture based subtitle format used on BDs/HD-DVDs
    Duration                    : 2 h 17 min
    Bit rate                    : 542 b/s
    Count of elements           : 34
    Stream size                 : 545 KiB (0%)
    Title                       : Forzados-PGS [CinemaniaHDD]
    Language                    : Spanish
    Default                     : Yes
    Forced                      : Yes

    Text #2
    ID                          : 5
    Format                      : PGS
    Muxing mode                 : zlib
    Codec ID                    : S_HDMV/PGS
    Codec ID/Info               : Picture based subtitle format used on BDs/HD-DVDs
    Duration                    : 2 h 22 min
    Bit rate                    : 35.4 kb/s
    Count of elements           : 2282
    Stream size                 : 36.0 MiB (0%)
    Title                       : Español-PGS [CinemaniaHDD]
    Language                    : Spanish
    Default                     : No
    Forced                      : No

    Text #3
    ID                          : 6
    Format                      : PGS
    Muxing mode                 : zlib
    Codec ID                    : S_HDMV/PGS
    Codec ID/Info               : Picture based subtitle format used on BDs/HD-DVDs
    Duration                    : 2 h 22 min
    Bit rate                    : 41.6 kb/s
    Count of elements           : 2654
    Stream size                 : 42.4 MiB (1%)
    Title                       : Ingles-PGS [CinemaniaHDD]
    Language                    : English
    Default                     : No
    Forced                      : No

    Text #4
    ID                          : 7
    Format                      : UTF-8
    Codec ID                    : S_TEXT/UTF8
    Codec ID/Info               : UTF-8 Plain Text
    Duration                    : 1 h 55 min
    Bit rate                    : 0 b/s
    Count of elements           : 16
    Stream size                 : 561 Bytes (0%)
    Title                       : Forzados-SRT [CinemaniaHDD]
    Language                    : Spanish
    Default                     : No
    Forced                      : No

    Text #5
    ID                          : 8
    Format                      : UTF-8
    Codec ID                    : S_TEXT/UTF8
    Codec ID/Info               : UTF-8 Plain Text
    Duration                    : 2 h 11 min
    Bit rate                    : 41 b/s
    Count of elements           : 1141
    Stream size                 : 40.1 KiB (0%)
    Title                       : Español-SRT [CinemaniaHDD]
    Language                    : Spanish
    Default                     : No
    Forced                      : No

    Menu
    00:00:00.000                : en:Opening Logos
    00:00:23.440                : en:Attack of the Clones
    00:01:50.527                : en:Return to Coruscant
    00:04:22.095                : en:Chancellors Meeting
    00:07:00.003                : en:Old Friends
    00:10:28.962                : en:Assassins
    00:14:19.901                : en:Speed Chase
    00:21:35.294                : en:Into the Club
    00:24:48.237                : en:New Assignments
    00:29:45.867                : en:Traveling Incognito
    00:31:33.475                : en:Dex's Diner
    00:33:48.526                : en:Jedi Archives
    00:34:50.505                : en:"Encouraged to Love"
    00:36:05.121                : en:Yoda and the Younglins
    00:38:25.929                : en:Return to Naboo
    00:39:25.363                : en:Audience with the Queen
    00:40:56.371                : en:Kamino Arrival
    00:42:12.780                : en:Meeting Lama Su
    00:44:02.014                : en:Stolen Kiss
    00:45:50.414                : en:Inspeting the Clones
    00:47:50.076                : en:Teasing a Senator
    00:50:21.018                : en:Jango's Apartment
    00:53:01.428                : en:Forbidden Love
    00:56:44.818                : en:Obi-Wan's Report
    00:58:56.700                : en:Nightmare
    01:00:46.059                : en:Obi-Wan vs. Jango
    01:03:41.192                : en:Back to Tatoonie
    01:06:24.355                : en:Asteroid Chase
    01:11:18.774                : en:Lar's Homestead
    01:14:01.354                : en:Anakin's Search
    01:15:23.477                : en:Dook's Separatist Plot
    01:17:48.873                : en:Tusken Camp
    01:21:40.354                : en:Out of Range
    01:23:46.897                : en:"You're Not All-Powerful"
    01:28:10.160                : en:Enemies Revealed
    01:30:52.906                : en:Obi-Wan Captive
    01:33:38.488                : en:Emergency Powers
    01:35:27.847                : en:Droid Factory
    01:42:44.867                : en:Love Pledge
    01:45:14.016                : en:The Arena
    01:49:53.629                : en:"This Party Is Over"
    01:56:22.475                : en:Yoda's Cavalry
    01:57:47.602                : en:Clone War
    02:00:29.180                : en:War Room
    02:04:48.981                : en:Duel with Dooku
    02:07:41.946                : en:Master Yoda
    02:11:23.667                : en:"Well Done Lord Tyranus"
    02:12:54.884                : en:"Begun, the Clone Wars Has"
    02:14:49.248                : en:Secret Union
    02:15:54.938                : en:End Credits

  • Peso: 8.05 GiB

Sinopsis

Descargar Star Wars: Episodio II (2002) Full HD 1080p Latino. Corren tenebrosos tiempos para la República. Ésta continúa envuelta en luchas y sumida en el caos. Un movimiento separatista, formado por centenares de planetas y poderosas alianzas y y lideradas por el misterioso conde Dooku, abre nuevas amenazas para la galaxia, a la que ni siquiera los Jedi parecen poder poner freno. Estas maniobras, planeadas hace mucho por una poderosa fuerza, conducen al estallido de las guerras clones y al principio del fin de la República. Para allanar el camino, los separatistas intentan asesinar a la senadora Padme Amidala. Para evitar futuros atentados, su seguridad es encomendada a dos caballeros Jedi…

Nota: Resubida y Actualizada, Intro Con Textos En Español 🙂

Ficha técnica

Video trailer de la película

Enlaces de descarga

Rip de Bluray

Descargar Star Wars: Episodio II (2002) Full HD 1080p Latino




Aportes de DPeliculasHDmega la pass es:dpeliculashdmega.org Aportes de CinemaniaHD la pass es:cinemaniahdd.com

Películas relacionadas

descargar Star Wars: Episodio II (2002) Full HD 1080p Latino Full 1080p 1080p gratis, Star Wars: Episodio II (2002) Full HD 1080p Latino Full 1080p mega 1 link, Star Wars: Episodio II (2002) Full HD 1080p Latino Full 1080p pelicula completa, descargar Star Wars: Episodio II (2002) Full HD 1080p Latino Full 1080p gratis en mega.

Star Wars: Episodio II (2002) Full HD 1080p Latino pelicula full hd, Star Wars: Episodio II (2002) Full HD 1080p Latino mega latino, Star Wars: Episodio II (2002) Full HD 1080p Latino 4k latino, Star Wars: Episodio II (2002) Full HD 1080p Latino pelicula completa, Star Wars: Episodio II (2002) Full HD 1080p Latino descargar gratis, descargar Star Wars: Episodio II (2002) Full HD 1080p Latino pelicula latino, Star Wars: Episodio II (2002) Full HD 1080p Latino 1 link mega, Star Wars: Episodio II (2002) Full HD 1080p Latino 1 link google drive, Star Wars: Episodio II (2002) Full HD 1080p Latino hd 1080p latino.
Comentarios 0