Star Wars: Episodio I (1999) Full HD 1080p Latino

4.043 vistas
1 estrella2 estrellas3 estrellas4 estrellas5 estrellas (5 votos, promedio: 3,40 de 5)
Cargando...

Información de Star Wars: Episodio I (1999) Full HD 1080p Latino

Datos de la película

  • Calidad: Full 1080p
  • Audio: Español Latino AC3 5.1 BLURAY - Ingles DTS 5.1 BLURAY
  • Subtitulos: Español Latino PGS - Ingles PGS
  • Resolución: 1920x1080p
  • Formato: MKV
  • Codec: H.264
  • Encoder: CinefiloCool
  • Mediainfo: Clic para Mostrar Datos Ver
  • Star Wars Episodio I (1999) Full HD 1080p Latino-CMHDD.mkv
    Format                      : Matroska
    Format version              : Version 4
    File size                   : 8.57 GiB
    Duration                    : 2 h 16 min
    Overall bit rate mode       : Variable
    Overall bit rate            : 9 014 kb/s
    Movie name                  : La Amenaza Fantasma (1999) CinemaniaHDD.Net
    Encoded date                : UTC 2020-04-04 05:32:33
    Writing application         : mkvmerge v42.0.0 ('Overtime') 64-bit
    Writing library             : libebml v1.3.10 + libmatroska v1.5.2
    Attachments                 : CINEMANIAHD.png

    Video
    ID                          : 1
    Format                      : AVC
    Format/Info                 : Advanced Video Codec
    Format profile              : High@L4.1
    Format settings             : CABAC / 4 Ref Frames
    Format settings, CABAC      : Yes
    Format settings, ReFrames   : 4 frames
    Codec ID                    : V_MPEG4/ISO/AVC
    Duration                    : 2 h 16 min
    Bit rate                    : 3 707 kb/s
    Width                       : 1 920 pixels
    Height                      : 1 080 pixels
    Display aspect ratio        : 16:9
    Frame rate mode             : Constant
    Frame rate                  : 23.976 (24000/1001) FPS
    Color space                 : YUV
    Chroma subsampling          : 4:2:0
    Bit depth                   : 8 bits
    Scan type                   : Progressive
    Bits/(Pixel*Frame)          : 0.075
    Stream size                 : 3.53 GiB (41%)
    Title                       : Full HD1080p [CinemaniaHDD
    Writing library             : x264 core 157 r2935 545de2f
    Encoding settings           : cabac=1 / ref=4 / deblock=1:0:0 / analyse=0x3:0x133 / me=tesa / subme=11 / psy=1 / psy_rd=1.00:0.00 / mixed_ref=1 / me_range=24 / chroma_me=1 / trellis=2 / 8x8dct=1 / cqm=0 / deadzone=21,11 / fast_pskip=0 / chroma_qp_offset=-2 / threads=34 / lookahead_threads=8 / sliced_threads=0 / nr=0 / decimate=1 / interlaced=0 / bluray_compat=0 / constrained_intra=0 / bframes=16 / b_pyramid=2 / b_adapt=2 / b_bias=0 / direct=3 / weightb=1 / open_gop=0 / weightp=2 / keyint=240 / keyint_min=24 / scenecut=40 / intra_refresh=0 / rc_lookahead=60 / rc=crf / mbtree=1 / crf=20.0 / qcomp=0.60 / qpmin=0 / qpmax=69 / qpstep=4 / vbv_maxrate=62500 / vbv_bufsize=78125 / crf_max=0.0 / nal_hrd=none / filler=0 / ip_ratio=1.40 / aq=1:1.00
    Default                     : Yes
    Forced                      : Yes
    Color range                 : Limited
    Color primaries             : BT.709
    Transfer characteristics    : BT.709
    Matrix coefficients         : BT.709

    Audio #1
    ID                          : 2
    Format                      : AC-3
    Format/Info                 : Audio Coding 3
    Commercial name             : Dolby Digital
    Codec ID                    : A_AC3
    Duration                    : 2 h 16 min
    Bit rate mode               : Constant
    Bit rate                    : 448 kb/s
    Channel(s)                  : 6 channels
    Channel layout              : L R C LFE Ls Rs
    Sampling rate               : 48.0 kHz
    Frame rate                  : 31.250 FPS (1536 SPF)
    Bit depth                   : 16 bits
    Compression mode            : Lossy
    Stream size                 : 436 MiB (5%)
    Title                       : Español Latino [CinemaniaHDD]
    Language                    : Spanish
    Service kind                : Complete Main
    Default                     : Yes
    Forced                      : No

    Audio #2
    ID                          : 3
    Format                      : DTS ES XXCH XLL
    Format/Info                 : Digital Theater Systems
    Commercial name             : DTS-HD Master Audio
    Codec ID                    : A_DTS
    Duration                    : 2 h 16 min
    Bit rate mode               : Variable
    Bit rate                    : 4 815 kb/s
    Channel(s)                  : 7 channels
    Channel layout              : C L R Ls Rs LFE Cb
    Sampling rate               : 48.0 kHz
    Frame rate                  : 93.750 FPS (512 SPF)
    Bit depth                   : 24 bits
    Compression mode            : Lossless
    Stream size                 : 4.58 GiB (53%)
    Title                       : Ingles [CinemaniaHDD]
    Language                    : English
    Default                     : No
    Forced                      : No

    Text #1
    ID                          : 4
    Format                      : PGS
    Muxing mode                 : zlib
    Codec ID                    : S_HDMV/PGS
    Codec ID/Info               : Picture based subtitle format used on BDs/HD-DVDs
    Duration                    : 1 h 44 min
    Bit rate                    : 1 118 b/s
    Count of elements           : 58
    Stream size                 : 856 KiB (0%)
    Title                       : Forzados-PGS [CinemaniaHDD]
    Language                    : Spanish
    Default                     : Yes
    Forced                      : No

    Text #2
    ID                          : 5
    Format                      : PGS
    Muxing mode                 : zlib
    Codec ID                    : S_HDMV/PGS
    Codec ID/Info               : Picture based subtitle format used on BDs/HD-DVDs
    Duration                    : 2 h 16 min
    Bit rate                    : 44.1 kb/s
    Count of elements           : 2698
    Stream size                 : 43.0 MiB (0%)
    Title                       : Español-PGS [CinemaniaHDD]
    Language                    : Spanish
    Default                     : No
    Forced                      : No

    Text #3
    ID                          : 6
    Format                      : PGS
    Muxing mode                 : zlib
    Codec ID                    : S_HDMV/PGS
    Codec ID/Info               : Picture based subtitle format used on BDs/HD-DVDs
    Duration                    : 2 h 16 min
    Bit rate                    : 51.9 kb/s
    Count of elements           : 3317
    Stream size                 : 50.5 MiB (1%)
    Title                       : Ingles-PGS [CinemaniaHDD]
    Language                    : English
    Default                     : No
    Forced                      : No

    Text #4
    ID                          : 7
    Format                      : UTF-8
    Codec ID                    : S_TEXT/UTF8
    Codec ID/Info               : UTF-8 Plain Text
    Duration                    : 26 min 44 s
    Bit rate                    : 4 b/s
    Count of elements           : 30
    Stream size                 : 1 000 Bytes (0%)
    Title                       : Forzados-SRT [CinemaniaHDD]
    Language                    : Spanish
    Default                     : No
    Forced                      : No

    Text #5
    ID                          : 8
    Format                      : UTF-8
    Codec ID                    : S_TEXT/UTF8
    Codec ID/Info               : UTF-8 Plain Text
    Duration                    : 2 h 7 min
    Bit rate                    : 51 b/s
    Count of elements           : 1348
    Stream size                 : 48.0 KiB (0%)
    Title                       : Español-SRT [CinemaniaHDD]
    Language                    : Spanish
    Default                     : No
    Forced                      : No

    Menu
    00:00:00.000                : 01. Opening Logos
    00:00:21.104                : 02. The Phantom Menace
    00:01:52.738                : 03. Short Negotiations
    00:07:55.350                : 04. Queen Amidala
    00:09:55.970                : 05. Landing on Naboo
    00:11:18.761                : 06. Jar Jar Binks
    00:13:24.178                : 07. Otoh Gunga
    00:14:49.806                : 08. Boss Nass
    00:17:14.242                : 09. The Planet Core
    00:20:40.948                : 10. Invasion of Theed
    00:22:25.302                : 11. Suprise Rescue
    00:25:12.886                : 12. Running the Blockade
    00:29:32.813                : 13. Tatooine
    00:31:41.483                : 14. Watto's Shop
    00:35:51.733                : 15. Fateful Meetings
    00:40:48.571                : 16. Dinner Conversation
    00:44:16.320                : 17. Preparing for the Race
    00:52:04.580                : 18. A Wager with Watto
    00:55:03.842                : 19. Meet the Podracers
    00:58:27.921                : 20. Begin the "Race"
    01:02:27.702                : 21. Lap Two
    01:05:33.012                : 22. Home Stretch
    01:10:06.911                : 23. Collecting the Prize
    01:11:17.940                : 24. Choosing a New Path
    01:16:20.951                : 25. Darth Maul Attacks
    01:18:08.100                : 26. The Queen's Worries
    01:20:26.363                : 27. Arrival on Coruscant
    01:24:18.178                : 28. The Jedi Council
    01:26:44.783                : 29. Senate Session
    01:29:54.723                : 30. Testing Anakin
    01:31:02.415                : 31. Palpatine's Nomination
    01:33:08.541                : 32. Anakin's Future
    01:37:21.419                : 33. The Queen's Gambit
    01:39:06.315                : 34. A Plea to the Gungans
    01:42:33.731                : 35. Battle Plans
    01:44:41.567                : 36. "Wipe Them Out"
    01:46:19.248                : 37. Retaking the Palace
    01:48:07.731                : 38. The Conflict Continues
    01:50:24.952                : 39. Duel of the Fates
    01:56:47.667                : 40. Gungan Retreat
    01:59:13.063                : 41. Qui-Gon vs. Darth-Maul
    02:00:31.391                : 42. Capturing the Viceroy
    02:01:21.316                : 43. Obi-Wan vs. Darth Maul
    02:02:23.378                : 44. Control Ship Destroyed
    02:03:56.971                : 45. A Sith Vanquished
    02:05:15.133                : 46. Chancellor Palpatine Arrives
    02:06:25.995                : 47. New Knight, New Apprentice
    02:07:23.177                : 48. Farewell to a Jedi
    02:08:28.993                : 49. Naboo Celebration
    02:09:53.536                : 50. End Credits

  • Peso: 8,57 GiB

Sinopsis

Descargar Star Wars: Episodio I (1999) Full HD 1080p Latino. La Federación de Comercio ha bloqueado el pequeño planeta de Naboo, gobernado por la joven Reina Amidala, como parte de un plan ideado por Sith Darth Sidious, que manteniéndose en el anonimato dirige a los neimoidianos, que están al mando de la Federación. Amidala es convencida por los Jedis Qui-Gon Jinn y su aprendiz, o padawan, Obi-Wan Kenobi a viajar hasta Coruscant, capital de la República y sede del Consejo Jedi para intentar mediar esta amenaza. Pero esquivando el bloqueo, la nave real resulta dañada, obligando a la tripulación a aterrizar en el desértico y remoto planeta de Tatooine…

Nota: Resubida y Actualizada, Intro Con Textos En Español 🙂

Ficha técnica

Video trailer de la película

Enlaces de descarga

Rip de Bluray

Descargar Star Wars: Episodio I (1999) Full HD 1080p Latino




Aportes de DPeliculasHDmega la pass es:dpeliculashdmega.org Aportes de CinemaniaHD la pass es:cinemaniahdd.com

Películas relacionadas

  • Viernes 13 Parte X: Jason X (2001) 1080p Latino

    Viernes 13 Parte X: Jason X (2001) 1080p Latino

    2001
    Viernes 13 Parte X: Jason X (2001) 1080p Latino

    0.0 1h 31m 2001

    Descargar Viernes 13 Parte X: Jason X (2001) 1080p Latino. En el año 2455, Old Earth es ahora un planeta...

    Director: Walter Gasparovic

    Género: Ciencia ficción

    Actores: Yani Gellman

  • The Debt Collector 2 (2020) Full HD 1080p Latino

    The Debt Collector 2 (2020) Full HD 1080p Latino

    2020
    The Debt Collector 2 (2020) Full HD 1080p Latino

    0.0 1h 37m 2020

    French y Sue trabajan en lo que mejor se les da -romper cráneos y aplastar huesos- mientras persiguen...

    Director: Jesse V. Johnson

    Género: Acción

    Actores: Vladimir Kulich

  • The Debt Collector 2 (2020) HD 1080p Latino

    The Debt Collector 2 (2020) HD 1080p Latino

    2020
    The Debt Collector 2 (2020) HD 1080p Latino

    0.0 1h 37m 2020

    French y Sue trabajan en lo que mejor se les da -romper cráneos y aplastar huesos- mientras persiguen...

    Director: Jesse V. Johnson

    Género: Acción

    Actores: Vladimir Kulich

  • The Debt Collector 2 (2020) REMUX 1080p Latino

    The Debt Collector 2 (2020) REMUX 1080p Latino

    2020
    The Debt Collector 2 (2020) REMUX 1080p Latino

    0.0 1h 37m 2020

    French y Sue trabajan en lo que mejor se les da -romper cráneos y aplastar huesos- mientras persiguen...

    Director: Jesse V. Johnson

    Género: Acción

    Actores: Vladimir Kulich

  • Viernes 13 (2009) Full HD 1080p Latino

    Viernes 13 (2009) Full HD 1080p Latino

    2009
    Viernes 13 (2009) Full HD 1080p Latino

    0.0 1h 37m 2009

    Descargar Viernes 13 (2009) Full HD 1080p Latino. Remake del clásico film de terror, dirigido en 1980...

    Director: Marcus Nispel

    Género: FULL 1080p Plateadas

    Actores: Willa Ford

Comentarios 5
  • Raul - 04 enero, 2018

    Disculpa una pregunta: Trae las letras de inicio en español o inglés

    • dpelis - 06 enero, 2018

      ya fue agregado

      • Matheus - 10 enero, 2018

        Disculpa, pero las letras del inicio se encuentran en inglés. ¿Todas las películas están así? Para considerar bien la descarga de la saga completa. Gracias de antemano.

        • dpelis - 11 enero, 2018

          correcto. nunca evisto peliculas que el inicio tenga titulos latino, hasta el momento de las que evisto no, excepto peliculas latinos, argentinas, peru, chilenas, esas si, pero peliculas americanas no.

          • Daniel - 09 mayo, 2019

            Peliculas «norte americanas» amigo… Argentina, Peru y Chile tambien son paises americanos…
            O para acortar peliculas «Yankis» bulgarmente dicho xDD
            Mucha gente comete ese error…
            Soy Argentino y tambien soy Americano jajaja
            Saludos y gracias por todo el material compartido…!!!