×

¿Problemas para descargar con Mozilla, EDGE? Deshabilita la opción "Abrir vinculos en una pestaña nueva" tal como lo muestra ésta imagen.

Star Trek: Picard (2020) Temporada 1 AMZN WEB-DL 1080p Latino

7.827 vistas

Información de Star Trek: Picard (2020) Temporada 1 AMZN WEB-DL 1080p Latino

Datos de la película

  • Calidad: WEBDL
  • Audio: Español Latino AC3 5.1 AMAZON - Ingles AC3 5.1 AMAZON
  • Subtitulos: Ingles SRT
  • Resolución: 1920x1080
  • Formato: MKV
  • Codec: H.264
  • Encoder: cinemaniahdd
  • Mediainfo: Clic para Mostrar Datos Ver
  • Star Trek, Picard S01E01 AMZN WEB-DL 1080p Latino.mkv
    Format                      : Matroska
    Format version              : Version 4
    File size                   : 3.09 GiB
    Duration                    : 44 min 18 s
    Overall bit rate            : 9 994 kb/s
    Movie name                  : Star Trek, Picard S01E01 - CinemaniaHDD.Net
    Encoded date                : UTC 2020-01-24 02:13:34
    Writing application         : mkvmerge v42.0.0 ('Overtime') 64-bit
    Writing library             : libebml v1.3.10 + libmatroska v1.5.2

    Video
    ID                          : 1
    Format                      : AVC
    Format/Info                 : Advanced Video Codec
    Format profile              : High@L4
    Format settings             : CABAC / 4 Ref Frames
    Format settings, CABAC      : Yes
    Format settings, ReFrames   : 4 frames
    Codec ID                    : V_MPEG4/ISO/AVC
    Duration                    : 44 min 18 s
    Bit rate mode               : Constant
    Bit rate                    : 8 711 kb/s
    Nominal bit rate            : 10 000 kb/s
    Width                       : 1 920 pixels
    Height                      : 1 080 pixels
    Display aspect ratio        : 16:9
    Frame rate mode             : Constant
    Frame rate                  : 23.976 (24000/1001) FPS
    Color space                 : YUV
    Chroma subsampling          : 4:2:0
    Bit depth                   : 8 bits
    Scan type                   : Progressive
    Bits/(Pixel*Frame)          : 0.175
    Stream size                 : 2.70 GiB (87%)
    Title                       : CinemaniaHDD
    Default                     : Yes
    Forced                      : No
    Color range                 : Limited
    Color primaries             : BT.709
    Transfer characteristics    : BT.709
    Matrix coefficients         : BT.709

    Audio #1
    ID                          : 2
    Format                      : E-AC-3
    Format/Info                 : Enhanced AC-3
    Commercial name             : Dolby Digital Plus
    Codec ID                    : A_EAC3
    Duration                    : 44 min 18 s
    Bit rate mode               : Constant
    Bit rate                    : 640 kb/s
    Channel(s)                  : 6 channels
    Channel layout              : L R C LFE Ls Rs
    Sampling rate               : 48.0 kHz
    Frame rate                  : 31.250 FPS (1536 SPF)
    Compression mode            : Lossy
    Stream size                 : 203 MiB (6%)
    Title                       : Español latino [CinemaniaHDD]
    Language                    : Spanish
    Service kind                : Complete Main
    Default                     : Yes
    Forced                      : No

    Audio #2
    ID                          : 3
    Format                      : E-AC-3
    Format/Info                 : Enhanced AC-3
    Commercial name             : Dolby Digital Plus
    Codec ID                    : A_EAC3
    Duration                    : 44 min 18 s
    Bit rate mode               : Constant
    Bit rate                    : 640 kb/s
    Channel(s)                  : 6 channels
    Channel layout              : L R C LFE Ls Rs
    Sampling rate               : 48.0 kHz
    Frame rate                  : 31.250 FPS (1536 SPF)
    Compression mode            : Lossy
    Stream size                 : 203 MiB (6%)
    Title                       : Inglés [CinemaniaHDD]
    Language                    : English
    Service kind                : Complete Main
    Default                     : No
    Forced                      : No

    Text #1
    ID                          : 4
    Format                      : UTF-8
    Codec ID                    : S_TEXT/UTF8
    Codec ID/Info               : UTF-8 Plain Text
    Duration                    : 37 min 6 s
    Bit rate                    : 2 b/s
    Count of elements           : 24
    Stream size                 : 711 Bytes (0%)
    Title                       : Forzados [CinemaniaHDD]
    Language                    : Spanish
    Default                     : Yes
    Forced                      : Yes

    Text #2
    ID                          : 5
    Format                      : UTF-8
    Codec ID                    : S_TEXT/UTF8
    Codec ID/Info               : UTF-8 Plain Text
    Duration                    : 43 min 23 s
    Bit rate                    : 49 b/s
    Count of elements           : 569
    Stream size                 : 15.8 KiB (0%)
    Title                       : Español latino [CinemaniaHDD]
    Language                    : Spanish
    Default                     : No
    Forced                      : No

    Text #3
    ID                          : 6
    Format                      : UTF-8
    Codec ID                    : S_TEXT/UTF8
    Codec ID/Info               : UTF-8 Plain Text
    Duration                    : 42 min 25 s
    Bit rate                    : 56 b/s
    Count of elements           : 589
    Stream size                 : 17.7 KiB (0%)
    Title                       : Inglés [CinemaniaHDD]
    Language                    : English
    Default                     : No
    Forced                      : No

    Text #4
    ID                          : 7
    Format                      : UTF-8
    Codec ID                    : S_TEXT/UTF8
    Codec ID/Info               : UTF-8 Plain Text
    Duration                    : 42 min 26 s
    Bit rate                    : 141 b/s
    Count of elements           : 571
    Stream size                 : 44.0 KiB (0%)
    Language                    : Korean
    Default                     : No
    Forced                      : No

     

  • Peso: 3.09 GiB --- FINAL DE TEMPORADA

Sinopsis

Star Trek: Picard presenta a Sir Patrick Stewart retomando su icónico papel de Jean-Luc Picard, el cual interpretó por siete temporadas en Star Trek: La nueva generación. La serie sigue a este icónico personaje en el siguiente capítulo de su vida

 10 EPISODIOS AGREGADOS

FINAL DE TEMPORADA

Ficha técnica

Video trailer de la película

Enlaces de descarga

Rip de Bluray

Descargar Star Trek: Picard (2020) Temporada 1 AMZN WEB-DL 1080p Latino




Aportes de DPeliculasHDmega la pass es:dpeliculashdmega.org Aportes de CinemaniaHD la pass es:cinemaniahdd.com
Guardado en : Sci-Fi & Fantasy , Series

Películas relacionadas

descargar Star Trek: Picard (2020) Temporada 1 AMZN WEB-DL 1080p Latino WEBDL 1080p gratis, Star Trek: Picard (2020) Temporada 1 AMZN WEB-DL 1080p Latino WEBDL mega 1 link, Star Trek: Picard (2020) Temporada 1 AMZN WEB-DL 1080p Latino WEBDL serie completa, descargar Star Trek: Picard (2020) Temporada 1 AMZN WEB-DL 1080p Latino WEBDL gratis en mega.

Star Trek: Picard (2020) Temporada 1 AMZN WEB-DL 1080p Latino pelicula full hd, Star Trek: Picard (2020) Temporada 1 AMZN WEB-DL 1080p Latino mega latino, Star Trek: Picard (2020) Temporada 1 AMZN WEB-DL 1080p Latino 4k latino, Star Trek: Picard (2020) Temporada 1 AMZN WEB-DL 1080p Latino pelicula completa, Star Trek: Picard (2020) Temporada 1 AMZN WEB-DL 1080p Latino descargar gratis, descargar Star Trek: Picard (2020) Temporada 1 AMZN WEB-DL 1080p Latino pelicula latino, Star Trek: Picard (2020) Temporada 1 AMZN WEB-DL 1080p Latino 1 link mega, Star Trek: Picard (2020) Temporada 1 AMZN WEB-DL 1080p Latino 1 link google drive, Star Trek: Picard (2020) Temporada 1 AMZN WEB-DL 1080p Latino hd 1080p latino.
Comentarios 2
  • Yvan Guipe - 04 febrero, 2020

    Soy seguidor tanto de las peliculas, como de las series de Viaje a las Estrellas por años, apenas terminé de bajar los dos capitulos de la actual pemporada Picard, y la calidad con subtitulos en español latino es de alta calidad. Agradezco el aporte,

  • Ezequias - 30 enero, 2020

    Muchas gracias.
    Siempre esperando cada cap.