×

¿Problemas para descargar con Mozilla, EDGE? Deshabilita la opción "Abrir vinculos en una pestaña nueva" tal como lo muestra ésta imagen.

Star Trek Más allá (2016) REMUX 1080p Latino – CMHDD

684 vistas

Información de Star Trek Más allá (2016) REMUX 1080p Latino – CMHDD

Datos de la película

  • Calidad: Full 1080p
  • Audio: Español Latino AC3 5.1 BLURAY - Ingles AC3 5.1 BLURAY
  • Subtitulos: Español Latino SRT- FORZADOS SRT
  • Resolución: 1920x1080p
  • Formato: MKV
  • Codec: H.264
  • Encoder: Dracarys
  • Mediainfo: Clic para Mostrar Datos Ver
  • Format                      : Matroska
    Format version              : Version 4
    File size                   : 27.8 GiB
    Duration                    : 2 h 2 min
    Overall bit rate mode       : Variable
    Overall bit rate            : 32.5 Mb/s
    Movie name                  : Star Trek Más allá (2016) REMUX 1080p Latino - CMHDD
    Encoded date                : UTC 2020-05-12 06:24:39
    Writing application         : mkvmerge v46.0.0 ('No Deeper Escape') 64-bit
    Writing library             : libebml v1.3.10 + libmatroska v1.5.2

    Video
    ID                          : 1
    Format                      : AVC
    Format/Info                 : Advanced Video Codec
    Format profile              : High@L4.1
    Format settings             : CABAC / 4 Ref Frames
    Format settings, CABAC      : Yes
    Format settings, Reference  : 4 frames
    Codec ID                    : V_MPEG4/ISO/AVC
    Duration                    : 2 h 2 min
    Bit rate mode               : Variable
    Bit rate                    : 26.8 Mb/s
    Maximum bit rate            : 30.0 Mb/s
    Width                       : 1 920 pixels
    Height                      : 1 080 pixels
    Display aspect ratio        : 16:9
    Frame rate mode             : Constant
    Frame rate                  : 23.976 (24000/1001) FPS
    Color space                 : YUV
    Chroma subsampling          : 4:2:0
    Bit depth                   : 8 bits
    Scan type                   : Progressive
    Bits/(Pixel*Frame)          : 0.539
    Stream size                 : 22.9 GiB (82%)
    Default                     : Yes
    Forced                      : No

    Audio #1
    ID                          : 2
    Format                      : AC-3
    Format/Info                 : Audio Coding 3
    Commercial name             : Dolby Digital
    Codec ID                    : A_AC3
    Duration                    : 2 h 2 min
    Bit rate mode               : Constant
    Bit rate                    : 640 kb/s
    Channel(s)                  : 6 channels
    Channel layout              : L R C LFE Ls Rs
    Sampling rate               : 48.0 kHz
    Frame rate                  : 31.250 FPS (1536 SPF)
    Compression mode            : Lossy
    Stream size                 : 560 MiB (2%)
    Language                    : Spanish
    Service kind                : Complete Main
    Default                     : Yes
    Forced                      : No

    Audio #2
    ID                          : 3
    Format                      : MLP FBA 16-ch
    Format/Info                 : Meridian Lossless Packing FBA with 16-channel presentation
    Commercial name             : Dolby TrueHD with Dolby Atmos
    Codec ID                    : A_TRUEHD
    Duration                    : 2 h 2 min
    Bit rate mode               : Variable
    Bit rate                    : 4 367 kb/s
    Maximum bit rate            : 7 641 kb/s
    Channel(s)                  : 8 channels
    Channel layout              : L R C LFE Ls Rs Lb Rb
    Sampling rate               : 48.0 kHz
    Frame rate                  : 1 200.000 FPS (40 SPF)
    Compression mode            : Lossless
    Stream size                 : 3.73 GiB (13%)
    Language                    : English
    Default                     : No
    Forced                      : No
    Number of dynamic objects   : 11
    Bed channel count           : 1 channel
    Bed channel configuration   : LFE

    Audio #3
    ID                          : 4
    Format                      : AC-3
    Format/Info                 : Audio Coding 3
    Commercial name             : Dolby Digital
    Codec ID                    : A_AC3
    Duration                    : 2 h 2 min
    Bit rate mode               : Constant
    Bit rate                    : 640 kb/s
    Channel(s)                  : 6 channels
    Channel layout              : L R C LFE Ls Rs
    Sampling rate               : 48.0 kHz
    Frame rate                  : 31.250 FPS (1536 SPF)
    Compression mode            : Lossy
    Stream size                 : 560 MiB (2%)
    Language                    : English
    Service kind                : Complete Main
    Default                     : No
    Forced                      : No

    Text #1
    ID                          : 5
    Format                      : UTF-8
    Codec ID                    : S_TEXT/UTF8
    Codec ID/Info               : UTF-8 Plain Text
    Duration                    : 1 h 49 min
    Bit rate                    : 1 b/s
    Count of elements           : 32
    Stream size                 : 845 Bytes (0%)
    Title                       : SRT-Forzados
    Language                    : Spanish
    Default                     : Yes
    Forced                      : No

    Text #2
    ID                          : 6
    Format                      : UTF-8
    Codec ID                    : S_TEXT/UTF8
    Codec ID/Info               : UTF-8 Plain Text
    Duration                    : 1 h 54 min
    Bit rate                    : 49 b/s
    Count of elements           : 1171
    Stream size                 : 41.7 KiB (0%)
    Title                       : SRT-Completos
    Language                    : Spanish
    Default                     : No
    Forced                      : No

    Text #3
    ID                          : 7
    Format                      : PGS
    Muxing mode                 : zlib
    Codec ID                    : S_HDMV/PGS
    Codec ID/Info               : Picture based subtitle format used on BDs/HD-DVDs
    Duration                    : 1 h 54 min
    Bit rate                    : 30.4 kb/s
    Count of elements           : 2342
    Stream size                 : 24.9 MiB (0%)
    Title                       : PGS-Completos
    Language                    : Spanish
    Default                     : No
    Forced                      : No

    Menu
    00:00:00.000                : en:Chapter 1
    00:08:26.547                : en:Chapter 2
    00:16:11.637                : en:Chapter 3
    00:32:38.289                : en:Chapter 4
    00:42:16.367                : en:Chapter 5
    00:52:22.264                : en:Chapter 6
    00:59:50.628                : en:Chapter 7
    01:12:05.529                : en:Chapter 8
    01:22:34.449                : en:Chapter 9
    01:33:00.950                : en:Chapter 10
    01:40:33.318                : en:Chapter 11
    01:47:38.994                : en:Chapter 12
    01:52:32.662                : en:Chapter 13
    01:55:41.351                : en:Chapter 14

  • Peso: 27.8 GiB

Sinopsis

El USS Enterprise, la nave insignia de la Flota Estelar liderada por el capitán James T. Kirk (Chris Pine), vuelve a surcar el universo para asegurarse de la protección de la Tierra y del resto de planetas aliados. Pero la tranquilidad durará poco y el peligro acecha. La primera etapa de su misión les llevará a un territorio desconocido, y su travesía de vigilancia pronto se convertirá en una carrera por la supervivencia espacial cuando se enfrenten a un nuevo y fiero enemigo, Krall (Idris Elba), una especie alienígena avanzada. Para frenar sus siniestros planes, Kirk deberá reunir a su equipo y usar todo sus recursos para resolver los desafíos a los que se enfrentarán. A la vez que intentan encontrar el modo de volver a la Tierra, su misión será proteger el futuro de la raza humana y preservar la armonía entre especies… Tercera entrega de la nueva saga de Star Trek.

Ficha técnica

Video trailer de la película

Enlaces de descarga

Rip de Bluray

Descargar Star Trek Más allá (2016) REMUX 1080p Latino – CMHDD




Aportes de DPeliculasHDmega la pass es:dpeliculashdmega.org Aportes de CinemaniaHD la pass es:cinemaniahdd.com
Guardado en : Acción , Aventura , Ciencia ficción , Remux

Películas relacionadas

  • M3GAN (2023) AMZN WEB-DL 4K UHD HDR Latino

    M3GAN (2023) AMZN WEB-DL 4K UHD HDR Latino

    2022
    M3GAN (2023) AMZN WEB-DL 4K UHD HDR Latino

    1h 42m 2022

    Descargar M3GAN (2023) AMZN WEB-DL 4K UHD HDR Latino. Cuando Gemma se convierte en la cuidadora de su...

    Director: Stephen W. Moore

    Género: 4K HDR

    Actores: Violet McGraw

  • M3GAN (2022) MA WEB-DL 1080p Latino

    M3GAN (2022) MA WEB-DL 1080p Latino

    2022
    M3GAN (2022) MA WEB-DL 1080p Latino

    1h 42m 2022

    Descargar M3GAN (2022) MA WEB-DL 1080p Latino. Cuando Gemma se convierte en la cuidadora de su sobrina...

    Director: Stephen W. Moore

    Género: Ciencia ficción

    Actores: Violet McGraw

  • Mar de sangre (2022) WEB-DL 1080p Latino

    Mar de sangre (2022) WEB-DL 1080p Latino

    2022
    Mar de sangre (2022) WEB-DL 1080p Latino

    1h 27m 2022

    Descargar Mar de sangre (2022) WEB-DL 1080p Latino. Un grupo de amigos que disfrutan de un fin de semana...

    Director: James Nunn

    Género: Acción

    Actores: Thomas Michael Flynn

  • Noche sin paz (2022) PLACEBO Full HD 1080p Latino

    Noche sin paz (2022) PLACEBO Full HD 1080p Latino

    2022
    Noche sin paz (2022) PLACEBO Full HD 1080p Latino

    1h 41m 2022

    Descargar Noche sin paz (2022) PLACEBO Full HD 1080p Latino. Cuando un equipo de mercenarios irrumpe...

    Director: Tyshana Hobson

    Género: Acción

    Actores: Yoon Cha-Lee

  • Noche sin paz (2022) HD 1080p Latino

    Noche sin paz (2022) HD 1080p Latino

    2022
    Noche sin paz (2022) HD 1080p Latino

    1h 41m 2022

    Descargar Noche sin paz (2022) HD 1080p Latino. Cuando un equipo de mercenarios irrumpe en Nochebuena...

    Director: Tyshana Hobson

    Género: Acción

    Actores: Yoon Cha-Lee

descargar Star Trek Más allá (2016) REMUX 1080p Latino – CMHDD Full 1080p 1080p gratis, Star Trek Más allá (2016) REMUX 1080p Latino – CMHDD Full 1080p mega 1 link, Star Trek Más allá (2016) REMUX 1080p Latino – CMHDD Full 1080p pelicula completa, descargar Star Trek Más allá (2016) REMUX 1080p Latino – CMHDD Full 1080p gratis en mega.

Star Trek Más allá (2016) REMUX 1080p Latino – CMHDD pelicula full hd, Star Trek Más allá (2016) REMUX 1080p Latino – CMHDD mega latino, Star Trek Más allá (2016) REMUX 1080p Latino – CMHDD 4k latino, Star Trek Más allá (2016) REMUX 1080p Latino – CMHDD pelicula completa, Star Trek Más allá (2016) REMUX 1080p Latino – CMHDD descargar gratis, descargar Star Trek Más allá (2016) REMUX 1080p Latino – CMHDD pelicula latino, Star Trek Más allá (2016) REMUX 1080p Latino – CMHDD 1 link mega, Star Trek Más allá (2016) REMUX 1080p Latino – CMHDD 1 link google drive, Star Trek Más allá (2016) REMUX 1080p Latino – CMHDD hd 1080p latino.
Comentarios 0