×

¿Problemas para descargar con Mozilla, EDGE? Deshabilita la opción "Abrir vinculos en una pestaña nueva" tal como lo muestra ésta imagen.

Star Trek Más allá (2016) Full HD 1080p Latino – CMHDD

3.013 vistas

Información de Star Trek Más allá (2016) Full HD 1080p Latino – CMHDD

Datos de la película

  • Calidad: Full 1080p
  • Audio: Español Latino AC3 5.1 BLURAY - Ingles AC3 5.1 BLURAY
  • Subtitulos: Español Latino SRT- FORZADOS SRT
  • Resolución: 1920X1080
  • Formato: MKV
  • Codec: H.264
  • Encoder: Dracarys
  • Mediainfo: Clic para Mostrar Datos Ver
  • Format                      : Matroska
    Format version              : Version 4
    File size                   : 5.56 GiB
    Duration                    : 2 h 2 min
    Overall bit rate            : 6 501 kb/s
    Movie name                  : Star Trek Más allá (2016) Full HD 1080p Latino - CMHDD
    Encoded date                : UTC 2020-05-12 08:05:46 / UTC 2017-10-20T15:08:35Z
    Writing application         : mkvmerge v46.0.0 ('No Deeper Escape') 64-bit
    Writing library             : libebml v1.3.10 + libmatroska v1.5.2 / Lavf57.7.2

    Video
    ID                          : 1
    Format                      : AVC
    Format/Info                 : Advanced Video Codec
    Format profile              : High@L4.1
    Format settings             : CABAC / 4 Ref Frames
    Format settings, CABAC      : Yes
    Format settings, Reference  : 4 frames
    Codec ID                    : V_MPEG4/ISO/AVC
    Duration                    : 2 h 2 min
    Bit rate                    : 5 092 kb/s
    Width                       : 1 920 pixels
    Height                      : 1 080 pixels
    Display aspect ratio        : 16:9
    Frame rate mode             : Constant
    Frame rate                  : 23.976 (24000/1001) FPS
    Color space                 : YUV
    Chroma subsampling          : 4:2:0
    Bit depth                   : 8 bits
    Scan type                   : Progressive
    Bits/(Pixel*Frame)          : 0.102
    Stream size                 : 4.35 GiB (78%)
    Title                       : dpeliculashdmega.org
    Writing library             : x264 core 148 r2708 86b7198
    Encoding settings           : cabac=1 / ref=4 / deblock=1:0:0 / analyse=0x3:0x133 / me=esa / subme=10 / psy=1 / psy_rd=1.00:0.00 / mixed_ref=1 / me_range=24 / chroma_me=1 / trellis=2 / 8x8dct=1 / cqm=0 / deadzone=21,11 / fast_pskip=1 / chroma_qp_offset=-2 / threads=34 / lookahead_threads=5 / sliced_threads=0 / nr=0 / decimate=1 / interlaced=0 / bluray_compat=0 / constrained_intra=0 / bframes=8 / b_pyramid=2 / b_adapt=2 / b_bias=0 / direct=3 / weightb=1 / open_gop=0 / weightp=2 / keyint=240 / keyint_min=24 / scenecut=40 / intra_refresh=0 / rc_lookahead=60 / rc=crf / mbtree=1 / crf=20.0 / qcomp=0.60 / qpmin=0 / qpmax=69 / qpstep=4 / vbv_maxrate=62500 / vbv_bufsize=78125 / crf_max=0.0 / nal_hrd=none / filler=0 / ip_ratio=1.40 / aq=1:1.00
    Language                    : English
    Default                     : Yes
    Forced                      : No
    Color range                 : Limited
    Color primaries             : BT.709
    Transfer characteristics    : BT.709
    Matrix coefficients         : BT.709
    Statistics Tags Issue       : mkvmerge v46.0.0 ('No Deeper Escape') 64-bit 2020-05-12 08:05:46 / mkvmerge v46.0.0 ('No Deeper Escape') 64-bit 2020-05-12 08:05:46 / UTC 2017-10-20T15:08:35Z
    FromStats_BitRate           : 5219148
    FromStats_Duration          : 02:02:22.168000000
    FromStats_FrameCount        : 176036
    FromStats_StreamSize        : 4789983151
    Duration_Source             : General_Duration

    Audio #1
    ID                          : 2
    Format                      : AC-3
    Format/Info                 : Audio Coding 3
    Commercial name             : Dolby Digital
    Codec ID                    : A_AC3
    Duration                    : 2 h 2 min
    Bit rate mode               : Constant
    Bit rate                    : 640 kb/s
    Channel(s)                  : 6 channels
    Channel layout              : L R C LFE Ls Rs
    Sampling rate               : 48.0 kHz
    Frame rate                  : 31.250 FPS (1536 SPF)
    Compression mode            : Lossy
    Stream size                 : 560 MiB (10%)
    Title                       : Latino-AC3
    Language                    : Spanish
    Service kind                : Complete Main
    Default                     : Yes
    Forced                      : No
    Statistics Tags Issue       : mkvmerge v46.0.0 ('No Deeper Escape') 64-bit 2020-05-12 08:05:46 / mkvmerge v46.0.0 ('No Deeper Escape') 64-bit 2020-05-12 08:05:46 / UTC 2017-10-20T15:08:35Z
    FromStats_BitRate           : 640000
    FromStats_Duration          : 02:02:22.176000000
    FromStats_FrameCount        : 229443
    FromStats_StreamSize        : 587374080
    Duration_Source             : General_Duration

    Audio #2
    ID                          : 3
    Format                      : AC-3
    Format/Info                 : Audio Coding 3
    Commercial name             : Dolby Digital
    Codec ID                    : A_AC3
    Duration                    : 2 h 2 min
    Bit rate mode               : Constant
    Bit rate                    : 640 kb/s
    Channel(s)                  : 6 channels
    Channel layout              : L R C LFE Ls Rs
    Sampling rate               : 48.0 kHz
    Frame rate                  : 31.250 FPS (1536 SPF)
    Compression mode            : Lossy
    Stream size                 : 560 MiB (10%)
    Title                       : Ingles-AC3
    Language                    : English
    Service kind                : Complete Main
    Default                     : No
    Forced                      : No
    Statistics Tags Issue       : mkvmerge v46.0.0 ('No Deeper Escape') 64-bit 2020-05-12 08:05:46 / mkvmerge v46.0.0 ('No Deeper Escape') 64-bit 2020-05-12 08:05:46 / UTC 2017-10-20T15:08:35Z
    FromStats_BitRate           : 640000
    FromStats_Duration          : 02:02:22.176000000
    FromStats_FrameCount        : 229443
    FromStats_StreamSize        : 587374080
    Duration_Source             : General_Duration

    Text #1
    ID                          : 4
    Format                      : UTF-8
    Codec ID                    : S_TEXT/UTF8
    Codec ID/Info               : UTF-8 Plain Text
    Title                       : Forzados
    Language                    : Spanish
    Default                     : Yes
    Forced                      : No
    Statistics Tags Issue       : mkvmerge v46.0.0 ('No Deeper Escape') 64-bit 2020-05-12 08:05:46 / mkvmerge v46.0.0 ('No Deeper Escape') 64-bit 2020-05-12 08:05:46 / UTC 2017-10-20T15:08:35Z
    FromStats_BitRate           : 1
    FromStats_Duration          : 01:49:43.103000000
    FromStats_FrameCount        : 32
    FromStats_StreamSize        : 845

    Text #2
    ID                          : 5
    Format                      : UTF-8
    Codec ID                    : S_TEXT/UTF8
    Codec ID/Info               : UTF-8 Plain Text
    Title                       : Completos
    Language                    : Spanish
    Default                     : No
    Forced                      : No
    Statistics Tags Issue       : mkvmerge v46.0.0 ('No Deeper Escape') 64-bit 2020-05-12 08:05:46 / mkvmerge v46.0.0 ('No Deeper Escape') 64-bit 2020-05-12 08:05:46 / UTC 2017-10-20T15:08:35Z
    FromStats_BitRate           : 49
    FromStats_Duration          : 01:54:17.444000000
    FromStats_FrameCount        : 1171
    FromStats_StreamSize        : 42750

  • Peso: 5,56 GiB

Sinopsis

El USS Enterprise, la nave insignia de la Flota Estelar liderada por el capitán James T. Kirk (Chris Pine), vuelve a surcar el universo para asegurarse de la protección de la Tierra y del resto de planetas aliados. Pero la tranquilidad durará poco y el peligro acecha. La primera etapa de su misión les llevará a un territorio desconocido, y su travesía de vigilancia pronto se convertirá en una carrera por la supervivencia espacial cuando se enfrenten a un nuevo y fiero enemigo, Krall (Idris Elba), una especie alienígena avanzada. Para frenar sus siniestros planes, Kirk deberá reunir a su equipo y usar todo sus recursos para resolver los desafíos a los que se enfrentarán. A la vez que intentan encontrar el modo de volver a la Tierra, su misión será proteger el futuro de la raza humana y preservar la armonía entre especies… Tercera entrega de la nueva saga de Star Trek.

Ficha técnica

Video trailer de la película

Enlaces de descarga

Rip de Bluray

Descargar Star Trek Más allá (2016) Full HD 1080p Latino – CMHDD




Aportes de DPeliculasHDmega la pass es:dpeliculashdmega.org Aportes de CinemaniaHD la pass es:cinemaniahdd.com
Guardado en : Acción , Aventura , Ciencia ficción

Películas relacionadas

descargar Star Trek Más allá (2016) Full HD 1080p Latino – CMHDD Full 1080p 1080p gratis, Star Trek Más allá (2016) Full HD 1080p Latino – CMHDD Full 1080p mega 1 link, Star Trek Más allá (2016) Full HD 1080p Latino – CMHDD Full 1080p pelicula completa, descargar Star Trek Más allá (2016) Full HD 1080p Latino – CMHDD Full 1080p gratis en mega.

Star Trek Más allá (2016) Full HD 1080p Latino – CMHDD pelicula full hd, Star Trek Más allá (2016) Full HD 1080p Latino – CMHDD mega latino, Star Trek Más allá (2016) Full HD 1080p Latino – CMHDD 4k latino, Star Trek Más allá (2016) Full HD 1080p Latino – CMHDD pelicula completa, Star Trek Más allá (2016) Full HD 1080p Latino – CMHDD descargar gratis, descargar Star Trek Más allá (2016) Full HD 1080p Latino – CMHDD pelicula latino, Star Trek Más allá (2016) Full HD 1080p Latino – CMHDD 1 link mega, Star Trek Más allá (2016) Full HD 1080p Latino – CMHDD 1 link google drive, Star Trek Más allá (2016) Full HD 1080p Latino – CMHDD hd 1080p latino.
Comentarios 7
  • JALEG2018 - 05 febrero, 2018

    y la postearan en pgs

  • Guino - 04 febrero, 2018

    me pide contraseña!!! y no da ninguna de las que ponen

    • Dracarys - 22 febrero, 2018

      dpeliculashdmega.org

  • Aldair Jesus - 09 diciembre, 2017

    Que paso? me quede esperando las dos anteriores :/

    • Dpelis2 - 10 diciembre, 2017

      Pronto una disculpa

  • Mr Friend - 21 octubre, 2017

    Muy buen aporte!! Me encanta esta Saga. Tal vez puedan compartir la trilogía completa pero, de todos modos, muchas gracias! COMO SIEMPRE, LOS RECOMIENDO A TODO EL MUNDO.

    • Dpelis2 pelis2 - 21 octubre, 2017

      Hola amigo. Las dos anteriores se viene Pronto, Saludos 😉